<?xml version="1.0" standalone="no"?>
<!DOCTYPE svg PUBLIC "-//W3C//DTD SVG 1.1//EN" "http://www.w3.org/Graphics/SVG/1.1/DTD/svg11.dtd">
<svg xmlns="http://www.w3.org/2000/svg">
<metadata>Copyright (C) 2023 by original authors @ fontello.com</metadata>
<defs>
<font id="czicons" horiz-adv-x="1000" >
<font-face font-family="czicons" font-weight="400" font-stretch="normal" units-per-em="1000" ascent="850" descent="-150" />
<missing-glyph horiz-adv-x="1000" />
<glyph glyph-name="Icon-Action-Profile-Off" unicode="&#xe800;" d="M500 183q-143 0-223-41t-102-125h650q-22 83-102 125t-223 41z m0 84q192 0 298-73t119-216q1-18-11-31t-31-14h-750q-18 0-31 14t-11 31q14 144 120 216t297 73z m0 500q57 0 104-29t76-75 28-105v-41q0-57-28-104t-76-76-104-29-104 29-76 76-28 104v41q0 57 28 105t76 75 104 29z m0-84q-52 0-88-36t-37-89v-41q0-52 37-89t88-36 88 36 37 89v41q0 52-37 89t-88 36z" horiz-adv-x="1000" />

<glyph glyph-name="Icon-Action-Profile-On" unicode="&#xe801;" d="M500 267q192 0 298-73t119-216q1-18-11-31t-31-14h-750q-18 0-31 14t-11 31q14 144 120 216t297 73z m0 500q57 0 104-29t76-75 28-105v-41q0-57-28-104t-76-76-104-29-104 29-76 76-28 104v41q0 57 28 105t76 75 104 29z" horiz-adv-x="1000" />

<glyph glyph-name="002-right-arrow-3" unicode="&#xe802;" d="M992 367l-435 348c-6 5-15 6-23 2-7-3-12-11-12-19v-196h-478c-24 0-44-19-44-43v-218c0-24 20-43 44-43h478v-196c0-8 5-16 12-19 3-2 6-3 10-3 4 0 9 2 13 5l435 348c5 4 8 10 8 17s-3 13-8 17z m-427-320v173c0 12-9 21-21 21h-500l-1 218h1 500c12 0 21 9 21 21v173l379-303-379-303z" horiz-adv-x="1000" />

<glyph glyph-name="003-left-arrow-2" unicode="&#xe803;" d="M992-112l-545 462 545 462c7 6 10 15 7 24-3 8-12 14-21 14h-391c-5 0-10-2-14-5l-565-478c-5-4-8-11-8-17s3-12 8-17l565-478c4-3 9-5 14-5h391c9 0 18 6 21 14 3 9 0 18-7 24z m-397 5l-540 457 540 457h324l-520-440c-5-4-8-11-8-17s3-12 8-17l520-440h-324z" horiz-adv-x="1000" />

<glyph glyph-name="004-right-arrow-2" unicode="&#xe804;" d="M992 367l-565 478c-4 3-9 5-14 5h-391c-9 0-17-6-21-14-3-9 0-18 7-24l545-462-545-462c-7-6-10-15-7-24 4-8 12-14 21-14h391c5 0 10 2 14 5l565 478c5 5 8 11 8 17s-3 13-8 17z m-587-474h-324l520 440c5 5 8 11 8 17s-3 13-8 17l-520 440h324l540-457-540-457z" horiz-adv-x="1000" />

<glyph glyph-name="005-right-arrow-1" unicode="&#xe805;" d="M978 372h0c-12 0-22-10-22-22s10-22 22-22c12 0 22 10 22 22s-10 22-22 22z m-87 0h0c-12 0-22-10-22-22s10-22 22-22 22 10 22 22-10 22-22 22z m-87 0h0c-12 0-22-10-22-22s10-22 22-22c12 0 22 10 22 22s-10 22-22 22z m-86 0h-1c-12 0-21-10-21-22s10-22 22-22c12 0 21 10 21 22s-9 22-21 22z m-87 0h-1c-12 0-21-10-21-22s10-22 22-22 21 10 21 22-9 22-21 22z m-87 0h-1c-12 0-21-10-21-22s10-22 22-22 21 10 21 22-9 22-21 22z m-87 0h-1c-12 0-21-10-21-22s10-22 22-22 21 10 21 22-9 22-21 22z m434 87h0c-12 0-22-10-22-22s10-22 22-22 22 10 22 22-10 22-22 22z m-87 0h0c-12 0-22-10-22-22s10-22 22-22c12 0 22 10 22 22s-10 22-22 22z m-86 0h-1c-12 0-21-10-21-22s10-22 22-22c12 0 21 10 21 22s-9 22-21 22z m-87 0h-1c-12 0-21-10-21-22s10-22 22-22 21 10 21 22-9 22-21 22z m-87 0h-1c-12 0-21-10-21-22s10-22 22-22 21 10 21 22-9 22-21 22z m260 87h0c-12 0-22-10-22-22s10-22 22-22c12 0 22 10 22 22s-10 22-22 22z m-86 0h-1c-12 0-21-10-21-22s10-22 22-22c12 0 21 10 21 22s-9 22-21 22z m-87 0h-1c-12 0-21-10-21-22s10-22 22-22 21 10 21 22-9 22-21 22z m-87 0h-1c-12 0-21-10-21-22s10-22 22-22 21 10 21 22-9 22-21 22z m174 87h-1c-12 0-21-10-21-22s10-22 22-22c12 0 21 10 21 22s-9 22-21 22z m-87 0h-1c-12 0-21-10-21-22s10-22 22-22 21 10 21 22-9 22-21 22z m-87 0h-1c-12 0-21-10-21-22s10-22 22-22 21 10 21 22-9 22-21 22z m87 87h-1c-12 0-21-10-21-22s10-22 22-22 21 10 21 22-9 22-21 22z m-87 0h-1c-12 0-21-10-21-22s10-22 22-22 21 10 21 22-9 22-21 22z m0 86h-1c-12 0-21-9-21-21s10-22 22-22 21 10 21 22-9 21-21 21z m347-521h0c-12 0-22-10-22-22s10-22 22-22 22 10 22 22-10 22-22 22z m-87 0h0c-12 0-22-10-22-22s10-22 22-22c12 0 22 10 22 22s-10 22-22 22z m-86 0h-1c-12 0-21-10-21-22s10-22 22-22c12 0 21 10 21 22s-9 22-21 22z m-87 0h-1c-12 0-21-10-21-22s10-22 22-22 21 10 21 22-9 22-21 22z m-87 0h-1c-12 0-21-10-21-22s10-22 22-22 21 10 21 22-9 22-21 22z m260-87h0c-12 0-22-10-22-22 0-12 10-22 22-22 12 0 22 10 22 22 0 12-10 22-22 22z m-86 0h-1c-12 0-21-10-21-22 0-12 10-22 22-22 12 0 21 10 21 22 0 12-9 22-21 22z m-87 0h-1c-12 0-21-10-21-22 0-12 10-22 22-22s21 10 21 22c0 12-9 22-21 22z m-87 0h-1c-12 0-21-10-21-22 0-12 10-22 22-22s21 10 21 22c0 12-9 22-21 22z m174-87h-1c-12 0-21-10-21-22 0-12 10-21 22-21 12 0 21 9 21 21 0 12-9 22-21 22z m-87 0h-1c-12 0-21-10-21-22 0-12 10-21 22-21s21 9 21 21c0 12-9 22-21 22z m-87 0h-1c-12 0-21-10-21-22 0-12 10-21 22-21s21 9 21 21c0 12-9 22-21 22z m87-87h-1c-12 0-21-10-21-22s10-22 22-22 21 10 21 22-9 22-21 22z m-87 0h-1c-12 0-21-10-21-22s10-22 22-22 21 10 21 22-9 22-21 22z m0-87h-1c-12 0-21-10-21-22 0-12 10-21 22-21s21 9 21 21c0 12-9 22-21 22z m-174 435h-1c-12 0-21-10-21-22s10-22 22-22 21 10 21 22-9 22-21 22z m-87 0h-1c-12 0-21-10-21-22s10-22 22-22 22 10 22 22-10 22-22 22z m-87 0h-1c-12 0-21-10-21-22s10-22 22-22 22 10 22 22-10 22-22 22z m-87 0h0c-12 0-22-10-22-22s10-22 22-22 22 10 22 22-10 22-22 22z m-87 0h0c-12 0-22-10-22-22s10-22 22-22 22 10 22 22-10 22-22 22z m435-87h-1c-12 0-21-10-21-22s10-22 22-22 21 10 21 22-9 22-21 22z m-87 0h-1c-12 0-21-10-21-22s10-22 22-22 21 10 21 22-9 22-21 22z m-87 0h-1c-12 0-21-10-21-22s10-22 22-22 22 10 22 22-10 22-22 22z m-87 0h-1c-12 0-21-10-21-22s10-22 22-22 22 10 22 22-10 22-22 22z m-87 0h0c-12 0-22-10-22-22s10-22 22-22 22 10 22 22-10 22-22 22z m-87 0h0c-12 0-22-10-22-22s10-22 22-22 22 10 22 22-10 22-22 22z m435 174h-1c-12 0-21-10-21-22s10-22 22-22 21 10 21 22-9 22-21 22z m-87 0h-1c-12 0-21-10-21-22s10-22 22-22 21 10 21 22-9 22-21 22z m-87 0h-1c-12 0-21-10-21-22s10-22 22-22 22 10 22 22-10 22-22 22z m-87 0h-1c-12 0-21-10-21-22s10-22 22-22 22 10 22 22-10 22-22 22z m-87 0h0c-12 0-22-10-22-22s10-22 22-22 22 10 22 22-10 22-22 22z m-87 0h0c-12 0-22-10-22-22s10-22 22-22 22 10 22 22-10 22-22 22z" horiz-adv-x="1000" />

<glyph glyph-name="006-left-arrow-1" unicode="&#xe806;" d="M22 372h0c-12 0-22-10-22-22s10-22 22-22 22 10 22 22-10 22-22 22z m87 0h0c-12 0-22-10-22-22s10-22 22-22 22 10 22 22-10 22-22 22z m87 0h-1c-12 0-21-10-21-22s10-22 22-22 22 10 22 22-10 22-22 22z m87 0h-1c-12 0-21-10-21-22s10-22 22-22 22 10 22 22-10 22-22 22z m87 0h-1c-12 0-21-10-21-22s10-22 22-22 21 10 21 22-9 22-21 22z m87 0h-1c-12 0-21-10-21-22s10-22 22-22 21 10 21 22-9 22-21 22z m87 0h-1c-12 0-21-10-21-22s10-22 22-22 21 10 21 22-9 22-21 22z m-435-87h0c-12 0-22-10-22-22s10-22 22-22 22 10 22 22-10 22-22 22z m87 0h-1c-12 0-21-10-21-22s10-22 22-22 22 10 22 22-10 22-22 22z m87 0h-1c-12 0-21-10-21-22s10-22 22-22 22 10 22 22-10 22-22 22z m87 0h-1c-12 0-21-10-21-22s10-22 22-22 21 10 21 22-9 22-21 22z m87 0h-1c-12 0-21-10-21-22s10-22 22-22 21 10 21 22-9 22-21 22z m-261-87h-1c-12 0-21-10-21-22 0-12 10-22 22-22s22 10 22 22c0 12-10 22-22 22z m87 0h-1c-12 0-21-10-21-22 0-12 10-22 22-22s22 10 22 22c0 12-10 22-22 22z m87 0h-1c-12 0-21-10-21-22 0-12 10-22 22-22s21 10 21 22c0 12-9 22-21 22z m87 0h-1c-12 0-21-10-21-22 0-12 10-22 22-22s21 10 21 22c0 12-9 22-21 22z m-174-87h-1c-12 0-21-10-21-22 0-12 10-21 22-21s22 9 22 21c0 12-10 22-22 22z m87 0h-1c-12 0-21-10-21-22 0-12 10-21 22-21s21 9 21 21c0 12-9 22-21 22z m87 0h-1c-12 0-21-10-21-22 0-12 10-21 22-21s21 9 21 21c0 12-9 22-21 22z m-87-87h-1c-12 0-21-10-21-22s10-22 22-22 21 10 21 22-9 22-21 22z m87 0h-1c-12 0-21-10-21-22s10-22 22-22 21 10 21 22-9 22-21 22z m0-87h-1c-12 0-21-10-21-22 0-12 10-21 22-21s21 9 21 21c0 12-9 22-21 22z m-348 522h0c-12 0-22-10-22-22s10-22 22-22 22 10 22 22-10 22-22 22z m87 0h-1c-12 0-21-10-21-22s10-22 22-22 22 10 22 22-10 22-22 22z m87 0h-1c-12 0-21-10-21-22s10-22 22-22 22 10 22 22-10 22-22 22z m87 0h-1c-12 0-21-10-21-22s10-22 22-22 21 10 21 22-9 22-21 22z m87 0h-1c-12 0-21-10-21-22s10-22 22-22 21 10 21 22-9 22-21 22z m-261 87h-1c-12 0-21-10-21-22s10-22 22-22 22 10 22 22-10 22-22 22z m87 0h-1c-12 0-21-10-21-22s10-22 22-22 22 10 22 22-10 22-22 22z m87 0h-1c-12 0-21-10-21-22s10-22 22-22 22 10 22 22-10 22-22 22z m87 0h-1c-12 0-21-10-21-22s10-22 22-22 21 10 21 22-9 22-21 22z m-174 87h-1c-12 0-21-10-21-22s10-22 22-22 22 10 22 22-10 22-22 22z m87 0h-1c-12 0-21-10-21-22s10-22 22-22 22 10 22 22-10 22-22 22z m87 0h-1c-12 0-21-10-21-22s10-22 22-22 21 10 21 22-9 22-21 22z m-87 87h-1c-12 0-21-10-21-22s10-22 22-22 22 10 22 22-10 22-22 22z m87 0h-1c-12 0-21-10-21-22s10-22 22-22 21 10 21 22-9 22-21 22z m0 86h-1c-12 0-21-9-21-21s10-22 22-22 21 10 21 22-9 21-21 21z m174-434h-1c-12 0-21-10-21-22s10-22 22-22 21 10 21 22-9 22-21 22z m87 0h-1c-12 0-21-10-21-22s10-22 22-22c12 0 21 10 21 22s-9 22-21 22z m86 0h0c-12 0-22-10-22-22s10-22 22-22c12 0 22 10 22 22s-10 22-22 22z m87 0h0c-12 0-22-10-22-22s10-22 22-22 22 10 22 22-10 22-22 22z m87 0h0c-12 0-22-10-22-22s10-22 22-22c12 0 22 10 22 22s-10 22-22 22z m-434 87h-1c-12 0-21-10-21-22s10-22 22-22 21 10 21 22-9 22-21 22z m87 0h-1c-12 0-21-10-21-22s10-22 22-22 21 10 21 22-9 22-21 22z m87 0h-1c-12 0-21-10-21-22s10-22 22-22c12 0 21 10 21 22s-9 22-21 22z m86 0h0c-12 0-22-10-22-22s10-22 22-22c12 0 22 10 22 22s-10 22-22 22z m87 0h0c-12 0-22-10-22-22s10-22 22-22 22 10 22 22-10 22-22 22z m87 0h0c-12 0-22-10-22-22s10-22 22-22c12 0 22 10 22 22s-10 22-22 22z m-434-174h-1c-12 0-21-10-21-22s10-22 22-22 21 10 21 22-9 22-21 22z m87 0h-1c-12 0-21-10-21-22s10-22 22-22 21 10 21 22-9 22-21 22z m87 0h-1c-12 0-21-10-21-22s10-22 22-22c12 0 21 10 21 22s-9 22-21 22z m86 0h0c-12 0-22-10-22-22s10-22 22-22c12 0 22 10 22 22s-10 22-22 22z m87 0h0c-12 0-22-10-22-22s10-22 22-22 22 10 22 22-10 22-22 22z m87 0h0c-12 0-22-10-22-22s10-22 22-22c12 0 22 10 22 22s-10 22-22 22z" horiz-adv-x="1000" />

<glyph glyph-name="007-left-arrow" unicode="&#xe807;" d="M979 746c-11 0-21-9-21-21 0-264-215-479-479-479h-408l215 214c8 8 8 22 0 30-9 8-22 8-30 0l-250-250c-2-2-3-4-4-7-3-5-3-11 0-16 1-2 2-5 4-7l250-250c4-4 10-6 15-6s11 2 15 6c8 8 8 22 0 30l-215 214h408c287 0 521 234 521 521 0 12-9 21-21 21z" horiz-adv-x="1000" />

<glyph glyph-name="008-right-arrow" unicode="&#xe808;" d="M998 233c-1 3-2 5-4 7l-250 250c-8 8-21 8-29 0-9-8-9-22 0-30l214-214h-408c-264 0-479 215-479 479 0 12-10 21-21 21s-21-9-21-21c0-287 234-521 521-521h408l-214-214c-9-8-9-22 0-30 4-4 9-6 14-6s11 2 15 6l250 250c2 2 3 5 4 7 3 5 3 11 0 16z" horiz-adv-x="1000" />

<glyph glyph-name="009-little-thin-expand-arrows" unicode="&#xe809;" d="M997 828c-3 9-10 16-19 19l-14 3h-285c-20 0-36-16-36-36s16-35 36-35h199l-296-297c-14-13-14-36 0-50 14-14 37-14 50 0l297 296v-199c0-20 16-36 35-36 20 0 36 16 36 36v285l-3 14z m-629-560l-297-296v199c0 20-16 36-35 36s-36-16-36-36v-285l3-14 7-11 0-1 1 0 11-7 14-3h285c20 0 36 16 36 36 0 19-16 35-36 35h-199l296 297c14 13 14 36 0 50-14 14-36 14-50 0z" horiz-adv-x="1000" />

<glyph glyph-name="010-expand" unicode="&#xe80a;" d="M969 147c-17 0-31-14-31-31v-204h-204c-17 0-31-14-31-31s14-31 31-31h235c17 0 31 14 31 31v235c0 17-14 31-31 31z m-703-235h-203v204c0 17-14 31-32 31s-31-14-31-31v-235c0-17 14-31 31-31h235c17 0 31 14 31 31s-14 31-31 31z m0 938h-235c-17 0-31-14-31-31v-235c0-17 14-31 31-31s32 14 32 31v204h203c17 0 31 14 31 31s-14 31-31 31z m703 0h-235c-17 0-31-14-31-31s14-31 31-31h204v-204c0-17 14-31 31-31s31 14 31 31v235c0 17-14 31-31 31z" horiz-adv-x="1000" />

<glyph glyph-name="011-blank-check-box" unicode="&#xe80b;" d="M889 739v-778h-778v778h778m0 111h-778c-61 0-111-50-111-111v-778c0-61 50-111 111-111h778c61 0 111 50 111 111v778c0 61-50 111-111 111l0 0z" horiz-adv-x="1000" />

<glyph glyph-name="012-done" unicode="&#xe80c;" d="M272 456l-78-78 250-250 556 555-78 78-478-478-172 173z m617-495h-778v778h556v111h-556c-61 0-111-50-111-111v-778c0-61 50-111 111-111h778c61 0 111 50 111 111v445h-111v-445z" horiz-adv-x="1000" />

<glyph glyph-name="013-export" unicode="&#xe80d;" d="M919 255c-18 0-32-13-32-31v-260h-774v773h260c18 0 32 14 32 32s-14 31-32 31h-292c-17 0-31-14-31-31v-837c0-18 14-32 31-32h837c18 0 32 14 32 32v292c0 17-14 31-31 31z m29 525c-4 8-10 14-18 18 0 0 0 0 0 0-4 2-8 2-12 2h-419c-18 0-32-14-32-31s14-32 32-32h342l-364-364c-13-13-13-33 0-45 6-7 14-10 22-10 8 0 17 3 23 10l364 364v-342c0-18 14-32 32-32 18 0 32 14 32 32v419c0 4-1 7-2 11z" horiz-adv-x="1000" />

<glyph glyph-name="014-cube" unicode="&#xe80e;" d="M940 594l-420 251c-12 7-28 7-40 0l-420-251c-11-7-19-20-19-34v-420c0-14 7-27 19-34l420-251c12-7 27-7 40 0l420 251c12 7 19 20 19 34v420c0 14-7 27-19 34z m-821-103l342-204v-329l-342 204v329z m381-136l-344 205 344 205 344-205-344-205z m381-193l-342-204v329l342 204v-329z" horiz-adv-x="1000" />

<glyph glyph-name="015-push-pin" unicode="&#xe80f;" d="M999 448c-1 7-5 12-11 14-162 64-305 13-347-5l-280 238c9 87-37 145-39 148-4 4-8 7-14 7-5 0-10-2-14-5l-288-288c-4-4-6-9-5-15 0-5 2-10 7-13 52-42 119-41 145-39l240-282c-16-42-66-194-5-346 2-6 7-10 13-12 2 0 3 0 4 0 5 0 10 2 13 5l275 275 256-256c4-3 9-5 14-5s9 2 13 5c7 8 7 20 0 27l-256 256 274 274c5 5 6 11 5 17z m-333-291l-253-254c-46 151 19 299 19 301 3 6 2 14-2 20l-254 298c-4 4-9 7-15 7-1 0-2 0-3-1 0 0-59-9-109 18l255 255c11-22 26-61 18-110-1-7 1-13 6-18l298-253c6-5 14-6 21-2 1 0 139 69 299 19l-280-280z" horiz-adv-x="1000" />

<glyph glyph-name="016-map-localization" unicode="&#xe810;" d="M713 763c-59 58-130 87-213 87s-154-29-213-87-88-128-88-210c0-49 25-132 75-248 51-116 101-221 151-316s75-142 75-139c8 14 19 34 32 59s38 71 73 139 64 132 90 189c26 57 50 116 73 178s33 107 33 138c0 82-29 152-88 210z m-149-272c-18-19-40-28-65-28-25 0-47 9-65 28s-28 40-28 65 9 47 28 65 40 26 65 26c25 0 47-9 65-26s28-39 28-65-9-47-28-65z" horiz-adv-x="1000" />

<glyph glyph-name="017-credit-card-2" unicode="&#xe811;" d="M995 69c0 0-66 84-87 152-5 16-11 38-18 64-35 123-66 228-101 263-38 38-184 63-243 72v139c0 50-41 91-91 91h-364c-50 0-91-41-91-91v-636c0-50 41-91 91-91h364c9 0 19 2 28 5 20-18 42-32 66-46 46-29 94-58 136-130 4-7 11-11 20-11 216 0 293 194 294 196 2 8 1 16-4 23z m-904 8c-25 0-45 21-45 46v636c0 25 20 46 45 46v-728z m455 353l72-29c3-12 9-32 15-48-3-4-5-10-8-16-4-9-8-19-15-27-22 16-45 50-64 87v33z m-364-353h-46v728h46v-728z m45 0v728h228c25 0 45-21 45-46v-272c-28 41-76 90-119 99-22 5-41-1-56-15-55-55-24-148 20-211 35-51 61-110 64-148 1-7 1-13 1-19 2-30 4-62 40-116h-223z m490-181c-46 74-100 107-145 134-31 18-57 35-76 61-38 51-39 75-40 104 0 7-1 14-2 21-4 46-32 113-72 170-35 50-58 120-25 153 3 2 6 4 14 3 36-7 94-74 108-110 17-43 64-146 126-171 7-3 15-2 21 2 23 15 33 39 41 56 2 5 5 12 5 12 9 7 13 19 7 29-6 14-17 51-21 64-2 7-6 13-13 15l-99 40v95c82-13 189-37 211-58 29-29 66-163 89-243 7-27 14-50 19-66 19-61 67-129 86-155-18-37-86-150-234-156z" horiz-adv-x="1000" />

<glyph glyph-name="018-credit-card-1" unicode="&#xe812;" d="M0 444v-375c0-35 28-63 63-63h875c34 0 62 28 62 63v375h-1000z m344-250h-188c-17 0-31 14-31 31 0 17 14 31 31 31h188c17 0 31-14 31-31 0-17-14-31-31-31z m437-63c-24 0-46 10-62 25-17-15-39-25-63-25-51 0-93 42-93 94 0 52 42 94 93 94 24 0 46-10 63-25 16 15 38 25 62 25 52 0 94-42 94-94 0-52-42-94-94-94z m157 563h-875c-35 0-63-28-63-63v-62h1000v62c0 35-28 63-62 63z" horiz-adv-x="1000" />

<glyph glyph-name="019-wallet-1" unicode="&#xe813;" d="M901 678l-305 165c-29 16-69 4-84-25l-179-332h-217c-28 0-50-22-50-50v-86-451c0-27 22-49 50-49h694c27 0 49 22 49 49v126h21c10 0 19 8 19 19v144c0 11-9 19-19 19h-21v141c0 23-17 44-39 49l107 196c15 31 4 68-26 85z m-217 73l-191-353h-54l204 375 41-22z m-137 49c6 11 20 15 31 9l30-17-212-394h-67l218 402z m-443-362c0 3 5 9 11 9h196l-26-48h-170c-4 0-8 0-11-1v40z m715-539c0-6-5-10-11-10h-693c-6 0-11 4-11 10v449c0 6 5 11 11 11h182 77 141 272 20c6 0 11-5 11-11v-141h-74v0c-32 0-57-26-57-58v-66c0-33 26-58 57-58h75v-126z m39 270h1v-105h-1-114c-10 0-19 8-19 19v66c0 11 9 20 19 20h114z m34 444l-116-215h-239l181 334 164-89c12-5 16-19 10-30z m-74 18l-10 5c-24 13-56 3-70-21l-12-23c-6-12-8-26-3-40 3-13 13-24 25-30l10-5c7-3 15-6 24-6 19 0 36 11 46 27l12 23c12 25 2 56-22 70z m-13-52l-12-23c-4-6-12-8-18-5l-10 6c-2 1-5 5-6 7-1 4-1 8 1 10l12 23c3 4 7 7 12 7 3 0 4 0 6-1l10-5c5-5 7-12 5-19z" horiz-adv-x="1000" />

<glyph glyph-name="020-credit-card" unicode="&#xe814;" d="M896 683h-792c-57 0-104-46-104-104v-458c0-58 47-104 104-104h792c57 0 104 46 104 104v458c0 58-47 104-104 104z m62-562c0-35-28-63-62-63h-792c-34 0-62 28-62 63v458c0 35 28 63 62 63h792c34 0 62-28 62-63v-458z m21 437h-958c-12 0-21-9-21-20v-125c0-12 9-21 21-21h958c12 0 21 9 21 21v125c0 11-9 20-21 20z m-21-125h-916v84h916v-84z m-562-166h-250c-12 0-21-10-21-21s9-21 21-21h250c11 0 21 9 21 21s-10 21-21 21z m0-84h-250c-12 0-21-9-21-20 0-12 9-21 21-21h250c11 0 21 9 21 21 0 11-10 20-21 20z m417 125h-42c-35 0-63-28-63-62v-42c0-34 28-62 63-62h42c34 0 62 28 62 62v42c0 34-28 62-62 62z m20-104c0-11-9-21-20-21h-42c-12 0-21 10-21 21v42c0 11 9 21 21 21h42c11 0 20-10 20-21v-42z" horiz-adv-x="1000" />

<glyph glyph-name="021-shield-5" unicode="&#xe815;" d="M901 731l-393 118c-5 1-11 1-16 0l-393-118c-12-4-20-15-20-28v-431c0-57 22-114 67-171 34-44 82-88 141-131 99-72 197-116 201-117 4-2 8-3 12-3s8 1 12 3c4 1 102 45 201 117 60 43 107 87 141 131 45 57 68 114 68 171v431c0 13-9 24-21 28z" horiz-adv-x="1000" />

<glyph glyph-name="022-shield-4" unicode="&#xe816;" d="M500 723c-10-8-144-108-316-142-23-398 316-604 316-604 0 0 339 206 317 604-173 34-317 142-317 142z m429-78c-1 12-10 22-22 24-210 42-389 174-391 176-10 7-23 7-32 0-7-6-176-133-391-176-12-2-21-12-22-24-17-303 125-520 247-649 46-49 89-84 117-106 16-12 29-21 37-27 15-10 19-13 27-13 1 0 1 0 1 0 9 0 14 3 27 12 7 5 18 13 32 23 25 19 63 50 105 92 79 79 141 168 186 262 60 127 87 264 79 406z m-233-552c-81-102-164-163-196-185-32 22-115 83-196 185-126 158-187 336-180 528 182 42 329 137 376 170 48-33 198-129 376-170 7-192-54-370-180-528z" horiz-adv-x="1000" />

<glyph glyph-name="023-guarantee" unicode="&#xe817;" d="M1000 349l-86 112 20 138-131 52-52 131-138-19-113 86-111-85-139 19-52-131-130-51 19-139-87-113 86-111-20-139 131-51 52-131 138 19 112-85 111 85 139-19 52 131 130 53-19 138 88 110z m-540-162l-167 138 36 44 124-102 211 245 43-38-247-287z" horiz-adv-x="1000" />

<glyph glyph-name="024-security-badge" unicode="&#xe818;" d="M915 683c-1 13-10 24-23 26-62 8-123 23-183 45-59 22-125 52-196 92-9 5-17 5-26 0-71-40-136-70-196-92-59-22-120-37-181-45-14-2-23-13-24-26-6-252 49-457 164-617 63-88 142-158 237-212 7-6 19-5 27 0 95 55 173 125 236 212 116 159 170 365 165 617z m-209-587c-55-75-123-138-206-188-83 50-152 113-206 188-105 147-156 334-154 563 58 9 115 25 172 46 58 21 120 50 188 86 68-36 130-65 187-86 58-21 115-37 173-46 2-230-49-418-154-563z" horiz-adv-x="1000" />

<glyph glyph-name="chat-1" unicode="&#xe819;" d="M911 494c-55 43-129 66-207 66-47 0-93-8-134-25-20 39-54 74-98 99-51 30-112 45-176 45-78 0-152-23-207-66-57-44-89-103-89-166 0-57 26-111 73-153l1-138c0-7 4-14 10-18 8-4 15-3 21 0l143 80c16-2 32-3 48-3 0 0 0 0 0 0 47 0 93 9 134 25 15-29 37-55 67-78 55-42 129-66 207-66 16 0 32 1 48 3l144-75c8-5 14-4 20 0 6 4 10 10 10 17l1 134c47 42 73 96 73 153 0 63-31 122-89 166z m-615-238c0 0 0 0 0 0-16 0-33 1-49 4-6 0-12-1-16-5l-116-64-1 112c0 1 0 1 0 1 0 6-3 12-7 15-43 35-66 81-66 128 0 106 114 191 255 191 104 0 199-48 237-120-13-7-25-15-36-24-58-44-89-103-89-166 0-17 2-34 7-50-37-14-77-22-119-22z m597-56c-4-3-7-9-7-15 0 0 0 0 0-1l-1-109-116 62c-4 3-10 4-15 4-17-3-33-4-50-4-115 0-213 58-245 136 0 1 0 1 0 1-7 17-10 36-10 54 0 68 47 128 118 162 0 0 0 0 1 0 0 0 1 0 2 1 39 18 85 28 134 28 141 0 255-85 255-191 0-47-23-92-66-128z m-69 197h-240c-11 0-20-10-20-21 0-11 9-20 20-20h240c11 0 20 9 20 20 0 11-9 21-20 21z m0-93h-240c-11 0-20-9-20-20 0-11 9-21 20-21h240c11 0 20 10 20 21 0 11-9 20-20 20z m87 190c-55 43-129 66-207 66-47 0-93-8-134-25-20 39-54 74-98 99-51 30-112 45-176 45-78 0-152-23-207-66-57-44-89-103-89-166 0-57 26-111 73-153l1-138c0-7 4-14 10-18 8-4 15-3 21 0l143 80c16-2 32-3 48-3 0 0 0 0 0 0 47 0 93 9 134 25 15-29 37-55 67-78 55-42 129-66 207-66 16 0 32 1 48 3l144-75c8-5 14-4 20 0 6 4 10 10 10 17l1 134c47 42 73 96 73 153 0 63-31 122-89 166z m-615-238c0 0 0 0 0 0-16 0-33 1-49 4-6 0-12-1-16-5l-116-64-1 112c0 1 0 1 0 1 0 6-3 12-7 15-43 35-66 81-66 128 0 106 114 191 255 191 104 0 199-48 237-120-13-7-25-15-36-24-58-44-89-103-89-166 0-17 2-34 7-50-37-14-77-22-119-22z m597-56c-4-3-7-9-7-15 0 0 0 0 0-1l-1-109-116 62c-4 3-10 4-15 4-17-3-33-4-50-4-115 0-213 58-245 136 0 1 0 1 0 1-7 17-10 36-10 54 0 108 116 191 255 191s255-85 255-191c0-47-23-92-66-128z m-69 197h-240c-11 0-20-10-20-21 0-11 9-20 20-20h240c11 0 20 9 20 20 0 11-9 21-20 21z m0-93h-240c-11 0-20-9-20-20 0-11 9-21 20-21h240c11 0 20 10 20 21 0 11-9 20-20 20z" horiz-adv-x="1000" />

<glyph glyph-name="002-communication" unicode="&#xe81a;" d="M893 564h-72v179c0 59-47 107-107 107h-607c-59 0-107-48-107-107v-500c0-59 48-107 107-107h19l-18-138c-3-20 11-38 30-41 11-1 22 3 30 11l168 168h21v-36c0-59 48-107 107-107h109l230-138c17-10 39-5 49 12 4 8 6 16 5 25l-17 101h53c59 0 107 48 107 107v357c0 59-48 107-107 107z m-536-107v-250h-36c-9 0-18-4-25-10l-104-104 10 74c3 19-11 37-31 40-1 0-3 0-4 0h-60c-20 0-36 16-36 36v500c0 20 16 36 36 36h607c20 0 36-16 36-36v-179h-286c-59 0-107-48-107-107z m572-357c0-20-16-36-36-36h-95c-20 0-36-16-36-35 0-2 0-4 0-6l12-67-172 103c-6 4-12 5-19 5h-119c-19 0-35 16-35 36v357c0 20 16 36 35 36h429c20 0 36-16 36-36v-357z" horiz-adv-x="1000" />

<glyph glyph-name="003-multimedia-2" unicode="&#xe81b;" d="M857 812h-714c-79 0-143-64-143-143v-482c0-79 64-143 143-143h56l1-126c0-11 7-22 17-27 4-2 9-3 13-3 7 0 14 2 19 6l194 150h414c79 0 143 64 143 143v482c0 79-64 143-143 143z m82-625c0-45-37-82-82-82h-424c-7 0-14-2-19-6l-154-119 0 95c-1 17-14 30-31 30h-86c-45 0-82 37-82 82v482c0 45 37 82 82 82h714c45 0 82-37 82-82v-482z" horiz-adv-x="1000" />

<glyph glyph-name="004-balloon" unicode="&#xe81c;" d="M851 721c-94 76-219 118-351 118s-257-42-351-118c-96-78-149-182-149-293 0-111 53-215 149-293 94-76 219-118 351-118 14 0 27 0 41 1l85-140c6-10 16-16 28-17 0 0 0 0 1 0 11 0 21 6 28 15l180 269c88 77 137 177 137 283 0 111-53 215-149 293z m-38-530l-157-233-68 113c-7 10-18 16-29 16-2 0-3 0-4 0-18-2-37-3-55-3-238 0-432 154-432 344 0 189 194 343 432 343 238 0 432-154 432-343 0-88-42-172-119-237z" horiz-adv-x="1000" />

<glyph glyph-name="005-speech-bubble" unicode="&#xe81d;" d="M271 466h458c18 0 32 14 32 32s-14 32-32 32h-458c-17 0-31-14-31-32s14-32 31-32z m0-153h458c18 0 32 14 32 32 0 17-14 31-32 31h-458c-17 0-31-14-31-31 0-18 14-32 31-32z m-190-206h103v-104c0-13 7-24 18-29 4-2 9-3 14-3 7 0 14 2 19 6l170 130h514c17 0 31 14 31 31v566c0 17-14 31-31 31h-838c-17 0-31-14-31-31v-565c0-18 14-32 31-32z m32 565h773v-501h-491c-7 0-14-2-20-6l-128-98v72c0 18-14 32-31 32h-103v501z" horiz-adv-x="1000" />

<glyph glyph-name="006-speech-bubble-with-text-lines" unicode="&#xe81e;" d="M825 830h-650c-96 0-175-79-175-176v-400c0-97 79-175 175-175l414 0 198-198c7-7 16-11 25-11 4 0 9 1 13 3 13 5 22 18 22 32v175c86 11 153 85 153 174v400c0 97-79 176-175 176z m105-576c0-58-47-105-105-105h-13c-20 0-35-16-35-35v-124l-149 148c-6 7-15 11-24 11h-429c-58 0-105 47-105 105v400c0 58 47 106 105 106h650c58 0 105-48 105-106v-400z m-172 327h-516c-19 0-35-15-35-35 0-19 16-35 35-35h516c19 0 35 16 35 35 0 20-16 35-35 35z m0-196h-516c-19 0-35-16-35-35s16-35 35-35h516c19 0 35 16 35 35s-16 35-35 35z" horiz-adv-x="1000" />

<glyph glyph-name="007-phone-chat-with-wifi-signal" unicode="&#xe81f;" d="M575 325c0 100-81 181-181 181v30c117 0 212-95 212-211l-31 0z m-22 0c0 87-71 159-159 159l0-31c71 0 128-58 128-128l31 0 0 0z m-159 104l0-31c41 0 74-33 74-73h30c0 57-46 104-104 104z m357 363v-748c0-32-26-59-58-59h-219l-135-135v135h-32c-32 0-58 27-58 59v748c0 32 26 58 58 58h386c32 0 58-26 58-58z m-320 9c0-4 3-7 7-7h124c4 0 7 3 7 7 0 4-3 7-7 7h-124c-4 0-7-3-7-7z m280-44h-421v-664l88 0v-148l148 148 185 0 0 664 0 0z" horiz-adv-x="1000" />

<glyph glyph-name="008-chat-2" unicode="&#xe820;" d="M167 426h216c10 0 17 7 17 16s-7 17-17 17h-216c-10 0-17-8-17-17s7-16 17-16z m433-67h-433c-10 0-17-8-17-17s7-16 17-16h433c9 0 17 7 17 16s-8 17-17 17z m0-100h-433c-10 0-17-8-17-17s7-16 17-16h433c9 0 17 7 17 16s-8 17-17 17z m301 549l-569 1c-54 0-99-44-99-99v-85l-134-1c-55 0-99-44-99-98v-353c0-54 44-99 99-99h101v-166c0-7 4-13 11-16 2-1 4-1 6-1 4 0 9 2 12 5l162 178 277 2c54 0 99 44 99 98v2l87-96c4-4 8-6 13-6 2 0 4 1 6 2 6 2 10 8 10 15v167h18c55 0 99 44 99 99v352c0 54-44 99-99 99z m-168-634c0-36-29-65-65-65l-285-1c-4 0-9-2-12-6l-138-151v140c0 9-7 17-16 17h-118c-36 0-66 29-66 65v353c0 36 30 65 66 65l151 0c0 0 0 0 0 0 0 0 0 0 0 0l418 1c36 0 65-29 65-65v-308-45z m234 183c0-37-30-66-66-66h-34c-9 0-17-7-17-17v-140l-83 92v301c0 54-45 99-99 99l-401-1v85c0 36 29 66 65 66l569-2c0 0 0 0 0 0 36 0 66-29 66-65v-352z" horiz-adv-x="1000" />

<glyph glyph-name="009-speech-bubbles-comment-option" unicode="&#xe821;" d="M590 210c61 25 108 60 143 104 35 44 53 92 53 143 0 52-18 100-53 144-35 44-82 78-143 104-60 25-126 38-197 38-71 0-137-13-197-38-61-26-109-60-143-104-35-44-53-92-53-144 0-44 13-86 40-125 26-39 62-72 109-99-4-9-8-17-12-24-4-8-8-15-14-22-5-6-9-12-12-16-3-4-8-9-15-16-7-7-11-12-13-14 0 0-1-1-2-3-2-2-2-3-3-3 0 1 0 0-2-2-1-2-2-3-2-3l-1-3c-1-1-1-2-1-3 0-2-1-3-1-4s1-3 1-4c1-5 3-8 6-11 4-3 8-5 12-5h2c18 3 34 6 48 9 57 15 109 39 155 71 33-5 66-8 98-8 71 0 137 12 197 38z m370-21c27 39 40 81 40 125 0 46-14 89-42 129-28 40-66 73-114 99 9-28 13-56 13-85 0-50-12-97-37-142-25-44-61-84-107-118-44-31-93-55-148-72-55-17-112-25-172-25-11 0-28 1-49 2 75-49 162-73 263-73 32 0 65 3 98 9 47-33 98-57 156-72 13-3 29-6 48-9 4 0 8 1 12 4 4 3 6 7 7 12 0 3 0 4 1 4 0 0 0 1-1 4 0 2-1 3-1 3l-1 3c-1 0-1 1-2 3-1 1-2 2-2 3-1 0-2 1-3 2-1 2-2 2-2 3-2 2-6 7-13 14-7 7-11 12-14 16-3 4-8 10-13 17-5 6-10 14-14 21-4 7-8 16-11 25 46 26 82 59 108 98z" horiz-adv-x="1000" />

<glyph glyph-name="010-support" unicode="&#xe822;" d="M926 756h-686c-41 0-74-34-74-74v-427c0-41 34-74 74-74h473l107-108c4-4 10-7 16-7 13 0 24 10 24 24v91h66c41 0 74 34 74 74v427c0 41-34 74-74 74z m-581-367c-38 0-69 31-69 69 0 37 31 68 69 68 38 0 69-31 69-68 0-38-31-69-69-69z m241 0c-38 0-69 31-69 69 0 37 31 68 69 68 37 0 68-31 68-68 0-38-31-69-68-69z m239 0c-37 0-68 31-68 69 0 37 31 68 68 68 38 0 69-31 69-68 0-38-31-69-69-69z m-701-135v145h-75c-27 0-49-22-49-48v-280c-1-29 21-51 49-51h43v-60c0-8 7-16 15-16 5 0 8 2 11 5l71 70h311c26 0 48 22 48 49v69h-308c-64 0-116 52-116 117z" horiz-adv-x="1000" />

<glyph glyph-name="011-chat-1" unicode="&#xe823;" d="M602 810c-212 0-385-133-396-299-124-40-206-136-206-243 2-79 43-152 109-195v-168c0-9 7-15 15-15 4 0 7 1 10 4l128 117c22-3 44-5 67-5 140 0 262 69 309 173 16 2 31 3 47 6l157-144c6-6 16-5 21 1 3 3 4 6 4 10v206c85 60 133 146 133 236 0 174-178 316-398 316z m-273-774c-23 0-46 2-69 6-4 1-9-1-13-4l-108-100v143c0 5-3 9-7 12-65 44-102 109-102 175 0 91 70 174 175 211 1-13 3-27 7-40 15-60 48-115 96-155 3-3 104-103 297-105-47-87-154-143-276-143z m515 242c-4-2-7-7-7-12v-180l-138 126c-2 3-6 4-10 4h-3c-26-4-53-7-79-7-145 0-233 56-276 92-44 38-75 88-91 144-4 16-6 33-6 50 1 157 166 285 368 285s368-128 368-286c0-82-46-161-126-216z" horiz-adv-x="1000" />

<glyph glyph-name="012-chat" unicode="&#xe824;" d="M853 704c-94 94-220 146-353 146s-259-52-354-146c-182-183-195-476-31-673-16-32-42-70-80-89-19-9-29-28-26-49s19-36 39-39c10-2 23-3 40-3 44 0 109 10 176 58 74-40 155-59 236-59 129 0 257 50 353 146 95 95 147 220 147 354s-52 259-147 354z m-40-667c-143-143-364-171-538-69-11 7-25 5-34-5-1 0-2-1-3-1-57-45-113-54-150-54h0c42 31 70 78 85 114 3 6 3 13 2 19-1 5-3 11-7 16-155 174-147 441 18 606 173 173 454 173 627 0 173-173 173-453 0-626z" horiz-adv-x="1000" />

<glyph glyph-name="013-whatsapp-logo" unicode="&#xe825;" d="M1000 363c0-269-220-487-491-487-86 0-167 22-237 60l-272-86 89 261c-45 74-71 160-71 252 0 269 220 487 491 487 271 0 491-218 491-487z m-491 409c-227 0-413-183-413-409 0-90 30-173 79-240l-52-152 159 50c65-43 143-68 227-68 228 0 413 184 413 410s-185 409-413 409z m248-521c-3 5-11 8-23 14-12 6-71 35-82 39-11 3-19 5-27-6-8-12-31-39-38-47-7-8-14-9-27-3-12 6-50 18-96 59-36 32-60 71-67 83-7 12-1 18 5 24 5 5 12 14 18 21 6 7 8 12 12 20 4 8 2 15-1 21-3 6-27 64-37 88-10 24-20 20-27 20-7 0-15 1-23 1-8 0-21-3-32-15-11-12-42-40-42-99 0-59 43-116 49-124 6-8 83-132 205-180 123-48 123-32 145-30 22 2 71 29 81 57 10 28 10 52 7 57z" horiz-adv-x="1000" />

<glyph glyph-name="014-arrows-11" unicode="&#xe826;" d="M92-150c-5 0-10 1-15 4-8 5-14 14-14 25v942c0 11 6 20 14 25 9 5 20 5 29 0l817-471c8-5 14-15 14-25 0-10-6-20-14-25l-817-471c-4-3-9-4-14-4z m28 922v-844l731 422-731 422z" horiz-adv-x="1000" />

<glyph glyph-name="015-play" unicode="&#xe827;" d="M213 828c-90 52-163 9-163-95v-766c0-104 73-147 163-95l670 384c90 52 90 136 0 188l-670 384z" horiz-adv-x="1000" />

<glyph glyph-name="017-arrows-9" unicode="&#xe828;" d="M996 366c-3 7-9 13-16 16l-928 464c-18 9-39 2-48-16-3-5-4-10-4-16v-928c0-20 16-36 36-36 5 0 11 1 16 4l928 464c18 9 25 30 16 48z" horiz-adv-x="1000" />

<glyph glyph-name="042-shopping-cart-1" unicode="&#xe829;" d="M300 192h551c63 0 114 51 114 113v232c0 0 0 1 0 1 0 0 0 1 0 1 0 1 0 1-1 2 0 0 0 1 0 1s0 1 0 1c0 1 0 1 0 2-1 0-1 1-1 1 0 0 0 1 0 1 0 1-1 1-1 2 0 0 0 0 0 1-1 0-1 0-1 1 0 0 0 0-1 1 0 0 0 1 0 1-1 1-1 1-1 1 0 1-1 1-1 1s-1 1-1 1-1 1-1 1c0 0 0 1-1 1 0 0 0 1-1 1 0 0-1 1-1 1 0 0-1 0-1 0s-1 1-1 1c-1 0-1 1-2 1s0 0-1 0-1 1-1 1-1 0-1 0c-1 1-1 1-2 1s0 0-1 0c0 0-1 0-1 0-1 0-1 0-1 0l-698 97v97c0 1 0 2-1 3 0 0 0 1 0 1 0 1 0 1 0 2 0 0 0 1-1 1 0 1 0 1 0 1 0 1 0 2 0 2 0 1-1 1-1 1 0 1 0 1 0 2-1 0-1 0-1 1 0 0 0 0-1 1 0 0 0 0 0 1s-1 0-1 1 0 1-1 1c0 0 0 1 0 1-1 0-1 1-2 1 0 0 0 0 0 1-1 0-1 0-2 1 0 0 0 0 0 0-1 1-1 1-2 1 0 1-1 1-1 1 0 1-1 1-1 1-1 0-2 1-3 1l-151 64c-14 6-30-1-36-15s0-30 14-36l135-57v-126-20-153-136-173c0-58 43-105 99-112-10-17-16-37-16-58 0-62 50-112 112-112s112 50 112 112c0 21-6 40-16 57h250c-10-17-16-36-16-57 0-62 51-112 112-112s112 50 112 112-50 112-112 112h-524c-32 0-58 26-58 58v75c17-10 37-15 58-15z m138-230c0-31-25-56-56-56s-57 25-57 56 26 57 57 57 56-26 56-57z m443 0c0-31-25-56-56-56s-57 25-57 56 26 57 57 57 56-26 56-57z m-30 285h-551c-32 0-58 26-58 58v137 153 10l667-92v-208c0-32-26-58-58-58z" horiz-adv-x="1000" />

<glyph glyph-name="043-heart-outline" unicode="&#xe82a;" d="M919 706c-53 53-122 82-197 82-74 0-144-29-196-82l-26-26-26 26c-52 53-122 82-196 82-74 0-144-29-197-82-108-108-108-284 0-393l388-388c7-6 15-10 23-12 3 0 6-1 8-1 11 0 22 5 31 13l388 388c108 109 108 285 0 393z m-61-332l-358-358-358 358c-75 75-75 197 0 272 36 36 84 56 136 56 51 0 99-20 135-56l57-57c16-16 44-16 60 0l57 57c36 36 84 56 135 56 52 0 100-20 136-56 75-75 75-197 0-272z" horiz-adv-x="1000" />

<glyph glyph-name="044-heart-1" unicode="&#xe82b;" d="M943 539c-26 129-117 212-235 212-66 0-137-27-207-78-71 52-142 79-209 79-118 0-210-83-235-214-37-193 83-449 432-589 4-1 8-2 12-2 4 0 8 1 11 2 349 143 468 399 431 590z m-442-526c-307 127-413 349-382 514 19 98 87 163 173 163 58 0 124-28 189-82 11-9 28-9 39 0 65 52 130 79 188 79 86 0 153-63 173-160 31-164-74-385-380-514z" horiz-adv-x="1000" />

<glyph glyph-name="045-heart" unicode="&#xe82c;" d="M919 708c-52 52-121 81-195 81s-144-29-196-81l-28-28-27 28c-53 53-123 82-197 82-73 0-143-29-195-81-52-53-81-122-81-196 0-74 29-144 81-196l399-398c5-6 13-9 20-9 7 0 14 3 20 9l399 397c52 53 81 122 81 196 0 74-28 144-81 196z m-40-351l-379-378-378 378c-42 42-65 97-65 156s23 114 65 155c41 41 96 64 154 64 59 0 115-23 156-64l48-48c11-11 29-11 41 0l47 47c42 42 97 65 155 65 59 0 114-23 156-64 41-42 64-97 64-156 0-59-23-114-64-155z" horiz-adv-x="1000" />

<glyph glyph-name="046-like" unicode="&#xe82d;" d="M998 538c-14 160-128 277-270 277-95 0-182-51-231-133-48 83-131 133-225 133-142 0-256-117-270-277-1-7-6-45 8-106 21-87 69-167 139-231l348-316 354 316c70 64 118 143 139 231 14 61 10 99 8 106z m-46-97c-18-80-62-153-126-211l-329-293-322 293c-65 58-108 131-127 211-14 58-8 90-8 91l0 2c12 140 110 242 232 242 90 0 170-55 207-144l18-42 18 42c37 88 121 144 213 144 122 0 220-102 232-244 0-1 6-33-8-91z m-644 257c-106 0-193-86-193-192 0-11 9-20 20-20s19 9 19 20c0 85 69 154 154 154 10 0 19 8 19 19s-9 19-19 19z" horiz-adv-x="1000" />

<glyph glyph-name="047-line-1" unicode="&#xe82e;" d="M769 292h-538c-31 0-58 27-58 58 0 31 27 58 58 58h538c31 0 58-27 58-58 0-31-27-58-58-58z m173 347h-884c-31 0-58 26-58 57s27 58 58 58h884c31 0 58-27 58-58s-27-57-58-57z m0-693h-884c-31 0-58 27-58 58s27 58 58 58h884c31 0 58-27 58-58s-27-58-58-58z" horiz-adv-x="1000" />

<glyph glyph-name="048-bars-2" unicode="&#xe82f;" d="M46 486h909c25 0 45 21 45 46s-20 45-45 45h-909c-26 0-46-20-46-45s20-46 46-46z m909-90h-909c-26 0-46-21-46-46s20-45 46-45h909c25 0 45 20 45 45s-20 46-45 46z m0-182h-909c-26 0-46-21-46-46s20-45 46-45h909c25 0 45 20 45 45s-20 46-45 46z" horiz-adv-x="1000" />

<glyph glyph-name="049-music" unicode="&#xe830;" d="M276 850c41 0 76-34 76-75v-850c0-41-35-75-76-75s-73 34-73 75v850c0 41 32 75 73 75z m448 0c41 0 73-34 73-75v-850c0-41-32-75-73-75s-76 34-76 75v850c0 41 35 75 76 75z" horiz-adv-x="1000" />

<glyph glyph-name="050-interface-2" unicode="&#xe831;" d="M962 841h-924c-21 0-38-17-38-38v-167c0-21 17-38 38-38h924c21 0 38 17 38 38v167c0 21-17 38-38 38z m0-372h-924c-21 0-38-17-38-38v-166c0-21 17-38 38-38h924c21 0 38 17 38 38v166c0 21-17 38-38 38z m0-367h-924c-21 0-38-17-38-38v-167c0-21 17-38 38-38h924c21 0 38 17 38 38v167c0 21-17 38-38 38z" horiz-adv-x="1000" />

<glyph glyph-name="018-play-button-4" unicode="&#xe832;" d="M852 502c-15 9-34 4-43-10s-5-34 10-43c34-22 54-59 54-99s-20-77-54-98l-515-321c-36-23-80-24-118-3-37 20-59 58-59 101v642c0 43 22 81 59 101 38 21 82 20 118-3l300-186c14-10 34-5 43 10 9 14 5 34-10 43l-300 187c-56 34-123 36-181 4-58-32-92-90-92-156v-642c0-66 34-124 92-156 27-15 57-23 87-23 33 0 65 9 94 27l515 321c53 33 84 90 84 152s-31 119-84 152z" horiz-adv-x="1000" />

<glyph glyph-name="052-three-2" unicode="&#xe833;" d="M950 0h-900c-28 0-50-22-50-50 0-28 22-50 50-50h900c28 0 50 22 50 50 0 28-22 50-50 50z m-900 700h900c28 0 50 22 50 50 0 28-22 50-50 50h-900c-28 0-50-22-50-50 0-28 22-50 50-50z m900-300h-900c-28 0-50-22-50-50s22-50 50-50h900c28 0 50 22 50 50s-22 50-50 50z" horiz-adv-x="1000" />

<glyph glyph-name="053-three-1" unicode="&#xe834;" d="M500 475c-69 0-125-56-125-125s56-125 125-125 125 56 125 125-56 125-125 125z m0-208c-46 0-83 37-83 83s37 83 83 83 83-37 83-83-37-83-83-83z m0-167c-69 0-125-56-125-125 0-69 56-125 125-125s125 56 125 125c0 69-56 125-125 125z m0-208c-46 0-83 37-83 83s37 83 83 83 83-37 83-83-37-83-83-83z m0 708c69 0 125 56 125 125s-56 125-125 125-125-56-125-125 56-125 125-125z m0 208c46 0 83-37 83-83s-37-83-83-83-83 37-83 83 37 83 83 83z" horiz-adv-x="1000" />

<glyph glyph-name="019-shopping-bag-6" unicode="&#xe835;" d="M864-150c0 0-68 220-68 432 0 197 45 386 45 386h-182v68c0 63-51 114-113 114h-91c-63 0-114-51-114-114v-68h-182c0 0 46-189 46-386 0-212-69-432-69-432h728z m-478 886c0 38 31 69 69 69h91c37 0 68-31 68-69v-68h-228v68z m-45-113v-91h45v91h228v-91h45v91h132c0 0-41-167-41-342 0-98 17-198 32-272h-564c15 74 32 175 32 274 0 173-41 340-41 340h132z m-134-659h586c10-42 18-69 18-69h-622c0 0 8 27 18 69z" horiz-adv-x="1000" />

<glyph glyph-name="055-three" unicode="&#xe836;" d="M91 441c-50 0-91-41-91-91 0-50 41-91 91-91s91 41 91 91c0 50-41 91-91 91z m424 0c-50 0-91-41-91-91 0-50 41-91 91-91 50 0 91 41 91 91 0 50-41 91-91 91z m394 0c-50 0-91-41-91-91 0-50 41-91 91-91 50 0 91 41 91 91 0 50-41 91-91 91z" horiz-adv-x="1000" />

<glyph glyph-name="056-menu-8" unicode="&#xe837;" d="M31 538h938c17 0 31 14 31 31 0 17-14 31-31 31h-938c-17 0-31-14-31-31 0-17 14-31 31-31z m938-157h-938c-17 0-31-14-31-31s14-31 31-31h938c17 0 31 14 31 31s-14 31-31 31z m0-218h-625c-17 0-31-14-31-32 0-17 14-31 31-31h625c17 0 31 14 31 31 0 18-14 32-31 32z" horiz-adv-x="1000" />

<glyph glyph-name="057-menu-6" unicode="&#xe838;" d="M979 663h-958c-12 0-21-10-21-21s9-21 21-21h958c12 0 21 9 21 21s-9 21-21 21z m0-292h-958c-12 0-21-9-21-21s9-21 21-21h958c12 0 21 10 21 21s-9 21-21 21z m0-292h-958c-12 0-21-9-21-21 0-11 9-20 21-20h958c12 0 21 9 21 20 0 12-9 21-21 21z" horiz-adv-x="1000" />

<glyph glyph-name="058-menu-7" unicode="&#xe839;" d="M500 850c-276 0-500-224-500-500s224-500 500-500 500 224 500 500-224 500-500 500z m0-964c-256 0-464 208-464 464s208 464 464 464 464-208 464-464-208-464-464-464z m214 678h-428c-10 0-18-8-18-18s8-17 18-17h428c10 0 18 8 18 17s-8 18-18 18z m0-196h-428c-10 0-18-8-18-18s8-18 18-18h428c10 0 18 8 18 18s-8 18-18 18z m0-197h-428c-10 0-18-8-18-17s8-18 18-18h428c10 0 18 8 18 18s-8 17-18 17z" horiz-adv-x="1000" />

<glyph glyph-name="020-shopping-basket-1" unicode="&#xe83a;" d="M406 161h63v188h-63v-188z m-125 0h63v188h-63v-188z m250 0h63v188h-63v-188z m125 0h63v188h-63v-188z m-47 375l112 146-44 44-146-190h-531l94-406c0-86 70-156 156-156h500c86 0 156 70 156 156l94 406h-391z m235-406c-13-57-42-94-94-94h-500c-52 0-85 42-94 94l-76 344h402l-15-21 44-44 50 65h359l-76-344z" horiz-adv-x="1000" />

<glyph glyph-name="060-bars" unicode="&#xe83b;" d="M500 850c-276 0-500-224-500-500s224-500 500-500 500 224 500 500-224 500-500 500z m-232-268h464c10 0 18-8 18-18s-8-18-18-18h-464c-10 0-18 8-18 18s8 18 18 18z m464-464h-464c-10 0-18 8-18 18s8 18 18 18h464c10 0 18-8 18-18s-8-18-18-18z m72 143h-608c-9 0-17 8-17 18s8 17 17 17h608c9 0 17-8 17-17s-8-18-17-18z m0 143h-608c-9 0-17 8-17 17s8 18 17 18h608c9 0 17-8 17-18s-8-17-17-17z" horiz-adv-x="1000" />

<glyph glyph-name="061-menu-4" unicode="&#xe83c;" d="M709 590h-417c-18 0-32-14-32-31 0-18 14-32 32-32h417c18 0 32 14 32 32-1 17-15 31-32 31z m0-417h-417c-18 0-32-14-32-32 0-18 14-32 32-32h417c18 0 32 14 32 32-1 18-15 32-32 32z m0 209h-417c-18 0-32-14-32-32 0-18 14-32 32-32h417c18 0 32 14 32 32-1 18-15 32-32 32z" horiz-adv-x="1000" />

<glyph glyph-name="062-menu-3" unicode="&#xe83d;" d="M1000 725c0 25-17 42-42 42h-916c-25 0-42-17-42-42v-83c0-25 17-42 42-42h916c25 0 42 17 42 42v83z m0-333c0 25-17 41-42 41h-916c-25 0-42-16-42-41v-84c0-25 17-41 42-41h916c25 0 42 16 42 41v84z m0-334c0 25-17 42-42 42h-916c-25 0-42-17-42-42v-83c0-25 17-42 42-42h916c25 0 42 17 42 42v83z" horiz-adv-x="1000" />

<glyph glyph-name="063-menu-2" unicode="&#xe83e;" d="M960 390h-920c-22 0-40-18-40-40s18-40 40-40h920c22 0 40 18 40 40 0 22-18 40-40 40z m0 307h-920c-22 0-40-18-40-41 0-22 18-40 40-40h920c22 0 40 18 40 40 0 23-18 41-40 41z m0-613h-920c-22 0-40-18-40-40s18-41 40-41h920c22 0 40 18 40 41s-18 40-40 40z" horiz-adv-x="1000" />

<glyph glyph-name="064-home-4" unicode="&#xe83f;" d="M986 423l-83 75-375 341c-16 15-40 15-56 0l-375-341-83-75c-17-16-19-42-3-59 15-17 42-19 59-3l13 12v-481c0-23 19-42 42-42h208v333c0 92 75 167 167 167s167-75 167-167v-333h208c23 0 42 19 42 42v481l13-12c8-7 18-11 28-11 12 0 23 5 31 14 16 17 14 43-3 59z m-486-156c-46 0-83-38-83-84v-333h166v333c0 46-37 84-83 84z" horiz-adv-x="1000" />

<glyph glyph-name="021-shopping-bag-7" unicode="&#xe840;" d="M444 433h112c76 0 138 63 138 139v111h-55v-111c0-46-37-83-83-83h-112c-46 0-83 37-83 83v111h-55v-111c0-76 62-139 138-139z m-388 417v-861c0-77 62-139 138-139h612c76 0 138 62 138 139v861h-888z m833-861c0-46-37-83-83-83h-612c-46 0-83 37-83 83v805h778v-805z" horiz-adv-x="1000" />

<glyph glyph-name="066-home-3" unicode="&#xe841;" d="M843-136h-686c-8 0-15 6-15 15v424c0 8 7 15 15 15s15-7 15-15v-409h656v409c0 8 6 15 15 15s15-7 15-15v-424c0-9-7-15-15-15z m-1 423c-3 0-7 1-10 4l-332 314-332-314c-6-6-15-5-21 1-6 6-6 15 1 21l342 323c6 6 15 6 20 0l343-323c6-6 6-15 0-21-3-3-7-5-11-5z m143 61c-4 0-8 2-11 4l-474 448-474-448c-6-5-16-5-22 1-6 6-5 16 1 21l485 458c6 6 15 6 21 0l484-458c6-5 7-15 1-21-3-3-7-5-11-5z m-364-484h-242c-8 0-15 6-15 15v328c0 9 7 15 15 15h242c8 0 15-6 15-15v-328c0-9-7-15-15-15z m-227 30h212v298h-212v-298z" horiz-adv-x="1000" />

<glyph glyph-name="067-house-outline" unicode="&#xe842;" d="M835 359c-16 0-29-12-29-28v-394h-204v161c0 15-13 28-28 28h-148c-16 0-29-13-29-28v-161h-204v381c0 15-12 27-29 27-15 0-27-12-27-27v-410c0-16 12-28 27-28h262c16 0 28 12 28 28v161h91v-161c0-16 13-28 29-28h261c15 0 28 12 28 28v423c0 16-13 28-28 28z m157-22l-228 228v156c0 16-13 29-29 29-15 0-28-13-28-29v-99l-187 189c-6 6-13 9-20 9-8 0-14-3-20-9l-471-471c-12-11-12-29 0-40 10-12 28-11 40 0l451 451 451-455c5-5 12-7 20-7 8 0 15 2 21 7 10 11 11 30 0 41z" horiz-adv-x="1000" />

<glyph glyph-name="068-home-2" unicode="&#xe843;" d="M903 354c-13 0-24-11-24-24v-432h-260v271c0 14-11 24-24 24h-190c-13 0-24-10-24-24v-215c0-13 11-24 24-24s24 11 24 24v191h142v-247h-450v593l379 304 388-311c10-8 26-7 34 4 8 10 7 25-4 34l-403 323c-9 7-21 7-30 0l-403-323c-6-5-9-12-9-19v-629c0-13 11-24 24-24h806c14 0 24 11 24 24v456c0 13-10 24-24 24z" horiz-adv-x="1000" />

<glyph glyph-name="069-home-1" unicode="&#xe844;" d="M991 394l-148 138v226h-172v-67l-171 159-491-456c-7-7-8-18-1-24 6-7 17-8 24-1l57 52v-571h274 274 274v571l57-52c3-3 8-5 12-5 4 0 9 2 12 6 7 6 6 17-1 24z m-285 330h102v-160l-102 95v65z m-309-840v361c0 9 7 16 16 16h174c9 0 16-7 16-16v-361h-206z m480 0h-240v361c0 28-22 51-50 51h-174c-27 0-50-23-50-51v-361h-240v569l377 350 245-227 98-91v0l34-32v-569z" horiz-adv-x="1000" />

<glyph glyph-name="070-home" unicode="&#xe845;" d="M989 444l-474 347c-9 6-21 6-30 0l-474-347c-12-9-15-25-6-37s25-14 36-5l459 336 459-336c4-4 10-5 15-5 8 0 16 3 21 10 9 12 6 28-6 37z m-125-48c-15 0-26-12-26-26v-414h-208v226c0 72-58 130-130 130s-130-58-130-130v-226h-208v414c0 14-11 26-26 26s-26-12-26-26v-440c0-14 12-26 26-26h260c14 0 25 11 26 24 0 1 0 1 0 2v252c0 43 35 78 78 78s78-35 78-78v-252c0-1 0-1 0-2 1-13 12-24 26-24h260c14 0 26 12 26 26v440c0 14-12 26-26 26z" horiz-adv-x="1000" />

<glyph glyph-name="071-interface-1" unicode="&#xe846;" d="M0-45v706c0 28 22 50 50 50h522 105l-100-99h-5-472v-607h607v109 148l99 100v-248-159c0-28-22-50-50-50h-706c-28 0-50 22-50 50z m434 382l-107 106c-29 30-78 30-108 0-14-14-22-33-22-54s8-39 22-54l161-160c29-30 78-30 108 0l490 490c14 14 22 33 22 54 0 20-8 39-22 54-30 30-79 30-109 0l-435-436z" horiz-adv-x="1000" />

<glyph glyph-name="072-check-mark" unicode="&#xe847;" d="M453 11c-46-45-119-45-165 0l-254 255c-45 45-45 119 0 164 45 45 119 45 164 0l152-152c11-11 30-11 41 0l411 411c45 45 119 45 164 0 22-22 34-51 34-82 0-31-12-61-34-82l-513-514z" horiz-adv-x="1000" />

<glyph glyph-name="073-checked-3" unicode="&#xe848;" d="M878 382c-1 14-13 25-28 24-15-1-26-14-25-28 1-9 1-19 1-28 0-213-173-386-386-386-213 0-387 173-387 386s174 386 387 386c84 0 164-26 231-77 12-9 29-6 38 5 9 12 6 29-5 38-77 57-168 88-264 88-243 0-440-197-440-440s197-440 440-440 440 198 440 440c0 11-1 21-2 32z m92 347c-41 41-107 41-148 0l-385-385-136 137c-41 41-107 41-148 0-40-41-40-107 0-148l235-235c14-13 31-20 49-20 18 0 36 7 49 20l484 484c40 41 40 107 0 147z m-38-109l-484-484c-6-6-16-6-22 0l-235 235c-20 20-20 52 0 72 10 10 23 15 36 15s26-5 36-15l140-140c9-9 21-14 34-14 13 0 25 5 34 14l389 389c20 19 52 19 72 0 20-20 20-52 0-72z" horiz-adv-x="1000" />

<glyph glyph-name="074-tick-inside-circle" unicode="&#xe849;" d="M295 445l-70-70 225-225 500 500-70 70-430-430-155 155z m605-95c0-220-180-400-400-400s-400 180-400 400 180 400 400 400c40 0 75-5 110-15l80 80c-60 20-125 35-190 35-275 0-500-225-500-500s225-500 500-500 500 225 500 500h-100z" horiz-adv-x="1000" />

<glyph glyph-name="075-checked-2" unicode="&#xe84a;" d="M440 187c3-2 6-4 10-4 5 0 9 2 13 6l266 300c6 7 6 17-1 23-7 7-18 6-24-1l-256-288-154 123c-7 6-18 5-24-2-5-7-4-18 3-24l167-133z m-440 663v-1000h1000v1000h-1000z m967-967h-934v934h934v-934z" horiz-adv-x="1000" />

<glyph glyph-name="076-success" unicode="&#xe84b;" d="M500 850c-276 0-500-224-500-500s224-500 500-500 500 224 500 500-224 500-500 500z m0-962c-254 0-461 208-461 462s207 462 461 462 462-207 462-462-207-462-462-462z m236 667l-296-332-178 142c-8 7-20 5-27-3-7-8-5-20 3-27l192-154c4-3 8-4 12-4 6 0 11 2 15 6l307 347c7 8 7 20-1 27-8 7-20 6-27-2z" horiz-adv-x="1000" />

<glyph glyph-name="077-flag" unicode="&#xe84c;" d="M856 798c-7 3-189 74-330-1-112-60-309-15-359-2v38c0 10-8 17-17 17s-17-7-17-17v-50c0 0 1 0 1 0 0 0-1-1-1-1v-482-18-415c0-10 8-17 17-17s17 7 17 17v393c38-9 120-27 206-27 59 0 120 9 168 34 128 68 301 0 303 0 5-2 11-2 15 1 5 3 8 9 8 14v500c0 7-4 13-11 16z m-23-492c-54 17-194 51-307-9-112-60-309-15-359-2v5 460c64-16 256-55 374 7 110 58 253 17 292 3v-464z" horiz-adv-x="1000" />

<glyph glyph-name="078-globe" unicode="&#xe84d;" d="M665 112c-9 0-17-7-18-16-1-9 6-17 15-18 210-20 288-68 288-94 0-42-171-101-450-101s-450 59-450 101c0 26 78 74 288 94 9 1 16 10 15 19-1 9-9 15-18 15-75-8-318-38-318-128 0-88 243-134 483-134s483 46 483 134c0 90-243 120-318 128z m40 655c-54 54-128 84-205 83-104 0-200-57-251-148-53-93-56-206-9-302 58-117 128-228 209-331l38-48c4-4 8-6 13-6 5 0 10 2 13 6l38 48c81 102 151 213 210 331 59 122 37 268-56 367z m26-352c-58-116-127-225-206-326l-25-30-25 31c-79 101-148 209-205 325-43 86-40 187 7 271 46 81 132 131 224 131 68 1 132-26 180-73 83-89 103-220 50-329z m-105 189c-3 8-13 12-22 9-8-3-12-13-9-22 0 0 0 0 0 0 8-19 10-41 5-62-8-38-38-68-76-77-34-8-70 2-95 27-26 26-36 62-28 98 12 55 66 89 121 77 6-1 12-3 18-6 9-3 18 0 22 9 4 8 0 18-9 22-26 11-55 14-83 7-51-11-91-51-102-102-10-47 4-95 37-129 26-25 60-39 96-39 10 0 20 1 30 3 51 12 91 52 102 103 6 27 4 56-7 82z" horiz-adv-x="1000" />

<glyph glyph-name="079-pin" unicode="&#xe84e;" d="M754 596c0 140-114 254-254 254s-254-114-254-254c0-135 105-245 237-254v-475c0-9 8-17 17-17s17 8 17 17v475c132 9 237 119 237 254z m-339 0c-37 0-67 30-67 68s30 67 67 67 68-30 68-67-30-68-68-68z" horiz-adv-x="1000" />

<glyph glyph-name="080-placeholder-3" unicode="&#xe84f;" d="M500 850c-221 0-401-180-401-401 0-25 2-50 7-75 0-2 1-6 3-13 6-28 15-54 27-80 43-101 138-257 346-425 5-4 12-6 18-6s13 2 18 6c208 168 303 324 346 425 12 26 21 52 27 80 2 7 3 11 3 13 5 25 7 50 7 75 0 221-180 401-401 401z m338-466c0-1 0-1 0-1-1-2-1-5-2-9 0-1 0-1 0-1-6-23-13-46-24-68 0 0 0-1 0-1-39-93-125-235-312-389-187 154-273 296-312 389-1 0-1 1-1 1-10 22-18 45-23 68 0 0 0 0 0 1-1 4-2 7-2 9 0 0 0 0 0 1-4 22-6 43-6 65 0 190 154 345 344 345s344-155 344-345c0-22-2-44-6-65z m-338 315c-140 0-255-114-255-254s115-255 255-255 254 115 254 255-114 254-254 254z m0-452c-109 0-198 89-198 198s89 198 198 198 198-89 198-198-89-198-198-198z" horiz-adv-x="1000" />

<glyph glyph-name="081-placeholder-2" unicode="&#xe850;" d="M500 417c64 0 117 52 117 116s-53 117-117 117-117-52-117-117 53-116 117-116z m0 200c46 0 83-38 83-84s-37-83-83-83-83 37-83 83 37 84 83 84z m-3-680l256 370c96 128 82 338-30 449-60 61-141 94-226 94s-166-33-226-94c-112-111-125-321-30-449l256-370z m-202 796c54 54 126 84 202 84s148-30 203-84c100-101 113-291 26-407l-229-330-229 331c-87 115-74 305 27 406z m407-600c-9 1-17-5-18-14s5-18 14-19c175-20 269-76 269-108 0-46-178-109-467-109s-467 63-467 109c0 32 94 88 269 108 9 1 16 10 15 19-1 9-10 15-19 14-175-20-298-79-298-141 0-71 172-142 500-142s500 71 500 142c0 62-123 121-298 141z" horiz-adv-x="1000" />

<glyph glyph-name="082-maps-and-flags" unicode="&#xe851;" d="M500 850c-200 0-362-162-362-362 0-248 324-612 338-627 13-15 35-15 48 0 14 15 338 379 338 627 0 200-162 362-362 362z m0-544c-100 0-182 81-182 182s82 182 182 182 182-82 182-182-81-182-182-182z" horiz-adv-x="1000" />

<glyph glyph-name="083-placeholder-1" unicode="&#xe852;" d="M500 850c-194 0-352-158-352-352 0-65 19-129 53-184l279-450c5-9 15-14 25-14 0 0 0 0 0 0 10 0 20 5 25 14l272 454c32 55 50 117 50 180 0 194-158 352-352 352z m252-502l-248-412-253 408c-29 47-44 100-44 154 0 162 132 294 293 294s293-132 293-294c0-52-14-104-41-150z m-252 326c-97 0-176-79-176-176 0-96 78-175 176-175 99 0 176 80 176 175 0 97-79 176-176 176z m0-293c-65 0-118 53-118 117 0 65 53 118 118 118s117-53 117-118c0-63-51-117-117-117z" horiz-adv-x="1000" />

<glyph glyph-name="084-placeholder" unicode="&#xe853;" d="M503 631c-70 0-128-57-128-128s58-128 128-128 128 58 128 128-57 128-128 128z m0-219c-50 0-91 41-91 91s41 91 91 91 92-41 92-91-41-91-92-91z m245 335c-66 67-154 103-248 103-93 0-181-36-248-103-122-122-137-352-33-492l281-405 280 405c105 140 90 370-32 492z m3-471l-251-362-251 363c-95 126-81 334 29 445 60 59 138 92 222 92s163-33 222-92c110-111 124-319 29-446z" horiz-adv-x="1000" />

<glyph glyph-name="085-multimedia-1" unicode="&#xe854;" d="M964 707h-928c-20 0-36-16-36-36v-642c0-20 16-36 36-36h928c20 0 36 16 36 36v642c0 20-16 36-36 36z m-58-71l-406-312-406 312h812z m23-572h-858v499l407-313c13-10 31-10 44 0l407 313v-499z" horiz-adv-x="1000" />

<glyph glyph-name="086-note" unicode="&#xe855;" d="M824 558l-324-285-324 285c-13 11-32 10-44-3-11-13-10-32 3-44l345-303c5-5 13-8 20-8s15 3 21 8l344 303c13 12 14 31 3 44-12 13-31 14-44 3z m83 132h-814c-51 0-93-42-93-93v-494c0-51 42-93 93-93h814c51 0 93 42 93 93v494c0 51-42 93-93 93z m31-587c0-17-14-31-31-31h-814c-17 0-31 14-31 31v494c0 17 14 31 31 31h814c17 0 31-14 31-31v-494z" horiz-adv-x="1000" />

<glyph glyph-name="022-shopping-bag-5" unicode="&#xe856;" d="M800 650h-133v33c0 92-75 167-167 167s-167-75-167-167v-33h-133l-167-800h934l-167 800z m-400 33c0 56 45 100 100 100s100-44 100-100v-33h-200v33z m-133-100h66v-133h67v133h200v-133h67v133h66l148-666h-765l151 666z" horiz-adv-x="1000" />

<glyph glyph-name="088-envelope-of-white-paper" unicode="&#xe857;" d="M974 717c-18 17-39 26-63 26h-822c-24 0-45-9-63-26-17-18-26-39-26-63v-608c0-24 9-45 26-63 18-17 39-26 63-26h822c24 0 45 9 63 26 17 18 26 39 26 63v608c0 24-9 45-26 63z m-45-671c0-4-2-9-6-12-3-4-7-5-12-5h-822c-5 0-9 1-12 5-4 3-6 8-6 12v429c12-13 25-26 39-37 100-76 179-139 238-188 19-16 34-29 46-38 12-9 28-18 48-27 21-9 40-14 57-14h1 1c17 0 37 5 57 14 20 9 36 18 48 27 12 9 27 22 46 38 59 49 138 112 238 188 14 11 27 24 39 37v-429l0 0z m0 593v-6c0-22-9-46-26-73-18-27-36-49-56-65-72-56-147-115-224-177-2-2-9-7-20-16-11-9-19-16-25-21-7-5-15-11-25-18-10-7-20-12-28-15-9-3-17-5-24-5h-1-1c-7 0-15 2-24 5-8 3-17 8-28 15-10 7-18 13-25 18-6 5-14 12-25 21-11 9-17 14-20 16-77 62-152 121-223 177-55 43-83 96-83 159 0 4 2 9 6 12 3 4 8 5 12 5h822c3-1 5-2 8-1 2 1 3-1 5-4 1-4 2-5 3-5 1 0 1-2 1-7 1-5 1-7 1-7v-8l0 0z" horiz-adv-x="1000" />

<glyph glyph-name="089-mail-1" unicode="&#xe858;" d="M919-5h-838c-45 0-81 36-81 80v550c0 44 36 81 81 81h838c45 0 81-37 81-81v-550c0-44-36-80-81-80z m-838 678c-27 0-49-21-49-48v-550c0-26 22-48 49-48h838c27 0 49 22 49 48v550c0 27-22 48-49 48h-838z m419-404c-21 0-43 7-59 21l-412 360c-7 5-8 16-2 22 6 7 16 8 23 2l412-359c21-18 55-18 76 0l412 359c7 6 17 5 23-2 6-6 5-17-2-23l-412-359c-16-14-38-21-59-21z" horiz-adv-x="1000" />

<glyph glyph-name="090-envelope-1" unicode="&#xe859;" d="M999 603c0 28-23 51-51 51 0 0 0 0 0 0l-897-1c-13 0-26-6-36-15-10-10-15-23-15-37l1-504c0-13 5-26 15-36 9-9 22-15 36-15 0 0 0 0 0 0l897 1c28 1 51 24 51 52l-1 504z m-107 0l-392-273-392 271 784 2z m-226-324l232-180-797-1 234 181c11 8 13 25 5 36-9 11-25 13-36 4l-252-195-1 454 435-300c4-3 9-5 14-5 5 0 10 2 15 5l433 301 1-455-252 195c-11 9-27 7-36-4-8-11-6-28 5-36z" horiz-adv-x="1000" />

<glyph glyph-name="091-message-1" unicode="&#xe85a;" d="M959 672h-918c-23 0-41-19-41-42v-560c0-23 18-42 41-42h918c23 0 41 19 41 42v560c0 23-18 42-41 42z m-918-33h918c4 0 7-2 8-6l-467-292-467 292c1 4 4 6 8 6z m-9-43l336-210-336-266v476z m936-526c0-5-4-9-9-9h-918c-5 0-9 4-9 9v8l366 289 93-59c6-3 12-3 18 0l94 59 365-289v-8z m0 50l-337 265 337 209v-474z" horiz-adv-x="1000" />

<glyph glyph-name="092-mail" unicode="&#xe85b;" d="M810 156c-4 0-8 2-11 5l-186 174c-6 6-7 16-1 23 7 6 17 6 23 0l186-174c6-6 7-16 0-22-3-4-7-6-11-6z m-620 0c-4 0-8 2-11 6-7 6-6 16 0 22l186 174c6 6 17 6 23 0 6-7 5-17-1-23l-186-174c-3-3-7-5-11-5z m729-161h-838c-45 0-81 36-81 80v550c0 44 36 81 81 81h838c45 0 81-37 81-81v-550c0-44-36-80-81-80z m-838 678c-27 0-49-21-49-48v-550c0-26 22-48 49-48h838c27 0 49 22 49 48v550c0 27-22 48-49 48h-838z m419-404c-21 0-43 7-59 21l-414 362c-7 5-8 16-2 22 6 7 16 8 23 2l414-361c21-18 55-18 76 0l414 360c6 6 16 6 22-1 6-7 5-17-1-23l-414-361c-16-14-38-21-59-21z" horiz-adv-x="1000" />

<glyph glyph-name="093-message" unicode="&#xe85c;" d="M999 464c0 2 0 4-1 5-1 6-5 11-10 14l-143 100v107c0 14-11 25-25 25h-165l-140 98c-9 6-21 6-29 0l-141-98h-164c-15 0-26-11-26-25v-106l-144-99c-7-5-11-13-11-21 0 0 0 0 0 0l1-556c0-6 3-13 7-18 5-5 12-7 18-7 0 0 0 0 0 0l948 1c15 0 26 12 26 26l-1 554z m-154 57l82-57-82-57v114z m-345 239l65-45h-130l65 45z m-294-96h588v-293l-197-137-81 62c0 0 0 1 0 1-9 6-22 7-31-1l-81-62-198 136v294z m-51-142v-117l-84 59 84 58z m-104-107l310-214-309-240-1 454z m50-481l399 310 398-309-797-1z m538 267l309 215 1-455-310 240z m34 361h-346c-14 0-26-12-26-26s12-26 26-26h346c15 0 26 12 26 26s-11 26-26 26z m0-134h-346c-14 0-26-11-26-25 0-14 12-26 26-26h346c15 0 26 12 26 26 0 14-11 25-26 25z" horiz-adv-x="1000" />

<glyph glyph-name="094-envelope" unicode="&#xe85d;" d="M878 731h-756c-67 0-122-55-122-123v-516c0-68 55-123 122-123h756c67 0 122 55 122 123v516c0 68-55 123-122 123z m66-639c0-37-29-67-66-67h-756c-36 0-66 30-66 67v516c0 37 30 66 66 66h756c36 0 66-29 66-66v-516h0z m-313 264l244 220c12 10 13 28 2 39-10 12-28 13-39 2l-337-302-66 58c0 1-1 1-1 1-1 2-3 3-4 4l-268 240c-12 10-29 9-39-3-11-11-10-29 2-39l247-221-246-231c-11-11-12-28-1-40 5-5 13-9 20-9 7 0 14 3 19 8l250 234 68-61c6-4 12-7 19-7 6 0 13 3 18 8l70 62 249-236c5-5 12-8 19-8 8 0 15 3 20 9 11 11 10 29-1 39l-245 233z" horiz-adv-x="1000" />

<glyph glyph-name="095-user-4" unicode="&#xe85e;" d="M500 850c-276 0-500-224-500-500 0-276 224-500 500-500s500 224 500 500c0 276-224 500-500 500z m2-736v0h-3-214c0 156 137 156 168 197l3 19c-43 21-73 74-73 135 0 80 52 146 117 146 65 0 117-66 117-146 0-61-30-113-72-135l4-21c34-39 166-41 166-195h-213z" horiz-adv-x="1000" />

<glyph glyph-name="096-user-shape" unicode="&#xe85f;" d="M500 350c69 0 128 24 177 73 49 49 73 108 73 177 0 69-24 128-73 177-49 49-108 73-177 73s-128-24-177-73c-49-49-73-108-73-177 0-69 24-128 73-177 49-49 108-73 177-73z m456-264c-1 22-4 46-9 71-5 25-10 49-17 71-7 21-17 43-28 63-12 21-25 38-41 53-15 14-33 26-55 35-22 8-46 13-73 13-4 0-13-5-27-14-15-10-31-20-49-32-18-11-41-21-70-31-29-9-58-14-87-14-29 0-58 5-87 14-29 10-52 20-70 31-18 12-34 22-49 32-14 9-23 14-27 14-27 0-51-5-73-13-22-9-40-21-55-35-15-15-29-32-41-53-11-20-21-42-28-63-7-22-12-46-17-71-4-25-7-49-9-71-2-22-2-44-2-67 0-53 16-94 47-124 32-30 74-45 127-45h569c52 0 94 15 126 45 32 30 47 71 47 124 0 23 0 45-2 67z" horiz-adv-x="1000" />

<glyph glyph-name="097-user-3" unicode="&#xe860;" d="M731 201c0 0-116-4-133 120 19 13 37 30 52 51 30 41 50 92 57 147 2 2 4 5 5 8 13 30 19 61 19 94 0 126-95 229-212 229-31 0-60-7-88-21-11-1-22-3-32-6-48-13-87-49-110-100-22-49-26-107-12-163 3-12 7-24 11-35 2-3 4-6 6-8 11-86 52-157 108-196-17-124-133-120-133-120-83-3-150-71-150-155v-174c0-12 11-22 23-22h198 320 198c13 0 23 10 23 22v174c0 84-67 152-150 155z m-319 579c8 3 17 4 26 4 3 1 6 1 9 3 23 12 47 18 72 18 92 0 167-82 167-184 0-3 0-6 0-9-18 18-43 30-70 30h-154c-9 0-18 2-25 8-6 5-11 11-14 18-4 11-15 18-27 17-12-1-22-9-25-21-9-34-27-65-51-91-23 93 18 186 92 207z m-20-389c-29 36-48 84-54 137 28 25 51 57 65 92 3-2 5-4 7-6 15-11 33-17 52-17h154c21 0 40-13 49-32 0 0-1 0-1-1 0-127-73-230-164-230-39 0-78 20-108 57z m52-92c18-7 37-10 56-10 19 0 38 3 56 10 8-43 32-81 66-106l-119-169c0-1-2-1-3-1-1 0-2 0-3 1l-118 169c33 25 57 63 65 106z m392-404h-176-320-176v151c0 61 50 110 110 110 1 0 37 1 66 14l120-172c9-13 24-21 40-21 0 0 0 0 0 0 16 0 31 8 40 21l120 172c33-14 65-14 66-14 60 0 110-49 110-110v-151z" horiz-adv-x="1000" />

<glyph glyph-name="098-profile-1" unicode="&#xe861;" d="M498 292c148 0 268 120 268 267s-120 267-268 267-267-120-267-267 120-267 267-267z m0 464c109 0 197-88 197-197s-88-197-197-197-197 89-197 197 89 197 197 197z m-463-882h930c19 0 35 15 35 35 0 185-150 336-336 336h-328c-185 0-336-150-336-336 0-20 16-35 35-35z m301 300h328c135 0 246-100 263-230h-854c17 129 128 230 263 230z" horiz-adv-x="1000" />

<glyph glyph-name="099-user-2" unicode="&#xe862;" d="M1000 350c0 276-224 500-500 500s-500-224-500-500c0-146 63-277 162-368l0-1 16-13c1-1 2-2 3-3 9-7 18-14 27-20 3-3 6-5 9-7 10-6 20-13 30-19 2-1 4-2 6-4 12-6 23-12 35-18 0 0 1 0 2-1 38-17 79-30 121-38 1 0 2 0 3-1 14-2 27-4 40-5 2 0 4 0 5 0 14-1 27-2 41-2 14 0 27 1 40 2 2 0 4 0 6 0 13 1 26 3 39 5 1 1 2 1 4 1 41 7 81 20 119 37 1 1 3 2 4 2 11 5 22 11 33 17 3 2 5 3 8 5 10 6 19 12 29 18 3 2 6 5 10 7 8 6 15 12 23 18 2 1 3 3 5 4l17 14-1 0c101 92 164 224 164 370z m-964 0c0 256 208 464 464 464s464-208 464-464c0-138-61-262-156-347-6 4-11 7-17 10l-154 77c-13 7-22 21-22 36v54c4 5 7 10 11 15 20 28 36 59 48 93 23 11 38 34 38 60v64c0 16-6 31-16 44v84c0 10 4 63-35 107-33 38-87 58-161 58s-128-20-161-58c-39-44-35-97-34-107v-84c-11-12-17-28-17-44v-64c0-20 9-39 25-51 15-58 45-102 56-116v-53c0-15-8-29-21-36l-144-78c-4-3-9-5-13-9-95 85-155 208-155 345z" horiz-adv-x="1000" />

<glyph glyph-name="100-user-1" unicode="&#xe863;" d="M854 204c-55 54-120 94-190 119 75 52 125 139 125 238 0 159-130 289-289 289s-289-130-289-289c0-99 50-186 125-238-70-25-135-65-190-119-94-95-146-220-146-354h78c0 233 189 422 422 422s422-189 422-422h78c0 134-52 259-146 354z m-354 146c-116 0-211 95-211 211s95 211 211 211c116 0 211-95 211-211s-95-211-211-211z" horiz-adv-x="1000" />

<glyph glyph-name="101-user" unicode="&#xe864;" d="M1000 350c0 276-224 500-500 500s-500-224-500-500c0-146 63-277 162-368l0-1 16-13c1-1 2-2 3-3 9-7 18-14 27-20 3-3 6-5 9-7 10-6 20-13 30-19 2-1 4-2 6-4 12-6 23-12 35-18 0 0 1 0 2-1 38-17 79-30 121-38 1 0 2 0 3-1 14-2 27-4 40-5 2 0 4 0 5 0 14-1 27-2 41-2 14 0 27 1 40 2 2 0 4 0 6 0 13 1 26 3 39 5 1 1 2 1 4 1 41 7 81 20 119 37 1 1 3 2 4 2 11 5 22 11 33 17 3 2 5 3 8 5 10 6 19 12 29 18 3 2 6 5 10 7 8 6 15 12 23 18 2 1 3 3 5 4l17 14-1 0c101 92 164 224 164 370z m-964 0c0 256 208 464 464 464s464-208 464-464c0-138-61-262-156-347-6 4-11 7-17 10l-154 77c-13 7-22 21-22 36v54c4 5 7 10 11 15 20 28 36 59 48 93 23 11 38 34 38 60v64c0 16-6 31-16 44v84c0 10 4 63-35 107-33 38-87 58-161 58s-128-20-161-58c-39-44-35-97-34-107v-84c-11-12-17-28-17-44v-64c0-20 9-39 25-51 15-58 45-102 56-116v-53c0-15-8-29-21-36l-144-78c-4-3-9-5-13-9-95 85-155 208-155 345z m736-375c-6-5-13-9-19-14-3-2-6-3-9-5-9-6-18-11-27-15-2-2-4-2-6-4-20-10-41-19-63-26-1-1-2-1-2-1-12-4-23-7-35-10 0 0 0 0 0 0-12-3-24-6-36-7 0-1 0-1-1-1-11-2-22-3-34-4-2 0-4 0-6 0-11-1-23-2-34-2-11 0-23 1-34 2-2 0-4 0-6 0-12 1-23 3-35 4 0 1-1 1-1 1-24 4-48 10-71 17-1 1-1 1-2 1-12 4-23 8-34 13 0 0 0 0 0 0-11 5-21 10-31 15-2 1-3 1-4 2-9 5-19 10-28 16-2 2-5 3-7 5-9 5-17 11-25 17-1 1-1 1-2 2 0 0 1 1 2 1l143 78c25 14 40 40 40 68l0 65-4 5c0 1-39 49-54 113l-2 8-6 4c-9 5-14 15-14 25v64c0 9 3 17 10 23l6 5v101l0 3c0 0-6 44 25 79 26 30 72 45 134 45 62 0 107-15 134-45 30-34 25-79 25-79l0-104 6-5c7-6 10-14 10-23v-64c0-13-9-25-21-29l-9-2-3-9c-11-34-26-65-46-92-4-7-9-13-13-17l-4-5v-68c0-29 16-55 42-68l154-77c1-1 2-1 3-2-2-1-4-3-6-4z" horiz-adv-x="1000" />

<glyph glyph-name="102-avatar" unicode="&#xe865;" d="M496 311c1 0 2 0 4 0 0 0 1 0 1 0 1 0 1 0 2 0 61 1 110 23 146 63 80 90 67 244 65 259-5 110-57 163-100 188-32 18-70 28-112 29h-1c0 0-1 0-1 0h-1c-23 0-68-4-112-28-43-25-96-78-101-189-2-15-15-169 65-259 36-40 85-62 145-63z m-155 317c0 0 0 1 0 2 7 148 112 164 157 164h1c1 0 1 0 2 0 56-1 151-24 157-164 0-1 0-2 1-2 0-2 14-142-52-217-26-29-60-43-106-44-1 0-1 0-1 0l0 0c-1 0-1 0-1 0-46 1-81 15-107 44-65 74-51 216-51 217z m584-572c0 0 0 0 0 0 0 2 0 4 0 5-1 41-4 137-94 168 0 0-1 0-2 1-93 23-171 77-172 78-12 9-30 6-39-7-9-13-5-30 7-39 4-2 86-60 189-86 49-17 54-69 55-116 0-2 0-4 1-5 0-19-1-48-5-64-33-19-165-85-365-85-199 0-331 66-365 85-3 16-5 45-4 64 0 2 0 3 0 5 1 47 7 99 55 116 103 27 185 84 189 86 13 9 16 27 7 39-9 13-27 16-39 7-1-1-78-54-172-78-1 0-2-1-2-1-90-31-93-127-94-167 0-2 0-4 0-5 0-1 0-1 0-1 0-11-1-66 10-94 2-5 6-10 11-13 6-4 155-99 404-99s398 95 405 99c4 3 8 8 10 13 11 28 11 83 10 94z" horiz-adv-x="1000" />

<glyph glyph-name="103-tool-1" unicode="&#xe866;" d="M989 676l-163 163c-15 15-39 15-54 0l-299-299c-15-15-15-39 0-54l27-27 299 298 108-108-298-299 27-27c15-15 39-15 54 0l299 299c15 15 15 39 0 54z m-516-407l162 162c15 15 15 40 0 55-15 15-39 15-54 0l-163-163-54 54c-15 15-39 15-54 0l-299-298c-15-15-15-40 0-55l163-163c15-15 40-15 54 0l299 299c15 15 15 39 0 54l-54 55z m-272-326l-108 108 298 299 27-27-54-55c-15-15-15-39 0-54 15-15 39-15 54 0l55 55 27-28-299-298z" horiz-adv-x="1000" />

<glyph glyph-name="104-circle" unicode="&#xe867;" d="M590 399c-3 17-19 28-36 25-17-2-29-19-26-36 2-12 3-25 3-38 0-129-105-234-234-234s-234 105-234 234 105 234 234 234c37 0 72-8 105-24 15-8 34-2 42 14 7 15 1 34-14 42-42 20-86 31-133 31-164 0-297-133-297-297 0-164 133-297 297-297s297 133 297 297c0 16-2 33-4 49z m113 248c-164 0-297-133-297-297 0-16 2-32 4-48 3-17 19-28 36-25 17 2 29 18 26 35-2 13-3 25-3 38 0 129 105 234 234 234s235-105 235-234-106-234-235-234c-37 0-72 8-105 24-15 8-34 2-42-14-7-15-1-34 14-42 42-20 86-31 133-31 164 0 297 133 297 297 0 164-133 297-297 297z" horiz-adv-x="1000" />

<glyph glyph-name="105-link-3" unicode="&#xe868;" d="M500 850c-277 0-500-223-500-500s223-500 500-500 500 223 500 500-223 500-500 500z m-118-554l-32-32c-9-9-23-9-32 0l-57 57c-36 36-56 84-56 136 0 104 86 191 191 191 50 0 100-21 136-57l57-57c9-9 9-23 0-32l-32-31c-9-10-23-10-32 0l-57 56c-18 19-43 30-70 30-55 0-100-46-100-100 0-27 11-52 29-71l57-56c5-12 5-25-2-34z m11 129l32 32c9 9 23 9 32 0l150-150c9-9 9-23 0-32l-32-32c-9-9-23-9-32 0l-150 150c-9 9-9 23 0 32z m212-370c-50 0-100 20-137 56l-57 57c-9 9-9 23 0 32l32 32c9 9 23 9 32 0l57-57c18-18 43-29 70-29 55 0 100 45 100 100 0 27-11 52-29 70l-57 57c-9 9-9 23 0 32l32 31c9 10 23 10 32 0l56-56c37-37 57-84 57-137 3-102-84-188-188-188z" horiz-adv-x="1000" />

<glyph glyph-name="106-foreign" unicode="&#xe869;" d="M955 850h-364c-25 0-45-20-45-45 0-26 20-46 45-46h254l-468-468c-18-17-18-46 0-64 9-9 21-13 32-13 12 0 23 4 32 13l468 468v-254c0-25 20-45 46-45 25 0 45 20 45 45v364c0 25-20 45-45 45z m-182-454c-25 0-46-21-46-46v-409h-636v636h409c25 0 46 21 46 46s-21 45-46 45h-454c-26 0-46-20-46-45v-728c0-25 20-45 46-45h727c25 0 45 20 45 45v455c0 25-20 46-45 46z" horiz-adv-x="1000" />

<glyph glyph-name="107-web-link" unicode="&#xe86a;" d="M366 57l-50-51c-44-43-116-43-159 0-21 21-33 49-33 79s12 57 33 78l186 185c38 38 111 94 164 42 24-24 64-24 88 0 24 24 24 64-1 88-90 89-223 72-338-42l-187-185c-44-45-69-104-69-166s25-122 69-167c46-45 107-68 167-68 61 0 121 23 167 68l51 51c24 24 24 63 0 87-24 25-63 25-88 1z m565 718c-97 95-232 101-321 12l-64-63c-24-24-24-63 0-87s64-25 88-1l63 63c46 46 107 27 146-12 22-21 33-49 33-79 0-29-11-57-33-78l-198-197c-91-90-134-48-152-30-24 24-63 24-88 0s-24-64 1-88c41-41 89-62 139-62 61 0 126 31 187 92l199 197c44 45 69 104 69 166 0 63-25 122-69 167z" horiz-adv-x="1000" />

<glyph glyph-name="108-link-2" unicode="&#xe86b;" d="M945 706c-35 35-83 55-132 55v0c-50 0-98-19-133-55l-242-242c-48-48-66-118-48-183 5-19 25-30 44-25 19 6 30 25 25 44-11 41 0 84 30 114l242 242c45 45 118 45 164 0 45-46 45-119 0-164l-243-242c-15-16-36-27-58-32-19-4-31-23-27-42 3-17 18-29 35-28 2 0 5 0 7 0 36 8 68 25 94 51l242 242c73 73 73 192 0 265z m-336-288c-5 19-25 30-44 25s-30-25-25-44c11-41 0-84-29-114l-243-242c-45-45-118-45-163 0-46 46-46 119-1 164l243 242c15 16 36 27 58 32 19 4 31 23 28 42s-23 32-43 28c0 0 0 0 0 0-36-8-68-25-94-51l-242-242c-73-74-72-193 2-265 73-72 190-72 263 0l242 242c48 48 66 118 48 183z" horiz-adv-x="1000" />

<glyph glyph-name="109-link-symbol-1" unicode="&#xe86c;" d="M922 397l-187-188c-104-103-272-103-376 0-16 17-29 35-40 54l87 87c4 4 9 7 14 9 6-20 17-40 33-56 52-52 136-52 188 0l187 188c52 52 52 136 0 187-51 52-135 52-187 0l-67-66c-54 21-112 26-169 18l142 142c104 104 272 104 375 0 104-103 104-271 0-375z m-496-309l-67-66c-51-52-136-52-187 0-52 51-52 136 0 187l187 188c52 52 136 52 188 0 16-16 27-36 33-56 5 3 10 5 14 9l87 87c-11 19-24 37-40 54-104 103-272 103-376 0l-187-188c-104-104-104-272 0-375 103-104 271-104 375 0l142 142c-56-8-115-3-169 18z" horiz-adv-x="1000" />

<glyph glyph-name="110-link-symbol" unicode="&#xe86d;" d="M949 240l-128 127c-34 35-76 52-125 52-50 0-92-18-127-54l-54 54c36 35 54 77 54 128 0 49-17 90-51 124l-126 127c-34 35-76 52-125 52-49 0-91-17-125-51l-90-89c-35-34-52-76-52-125 0-49 17-90 52-125l127-127c34-34 76-52 125-52 50 0 92 18 127 54l54-54c-36-35-54-77-54-128 0-49 17-90 51-124l127-127c33-35 75-52 124-52 50 0 91 17 125 51l90 89c35 34 52 76 52 125 0 49-17 90-51 125z m-518 262c-1 1-5 5-11 12-6 6-11 11-13 13-3 2-6 5-12 9-5 4-10 7-15 8-5 1-11 2-17 2-17 0-30-6-42-17-11-11-17-25-17-42 0-6 1-11 2-17 2-5 4-10 8-15 4-5 7-9 9-12 3-2 7-7 13-13 7-6 11-10 12-11-12-13-27-19-44-19-17 0-31 5-42 16l-127 128c-12 11-17 25-17 41 0 16 5 30 17 41l90 90c12 11 26 16 42 16 16 0 30-5 41-17l126-127c12-11 18-25 18-41 0-17-7-32-21-45z m434-428l-90-90c-11-10-25-16-41-16-17 0-31 6-42 17l-126 127c-12 11-18 25-18 41 0 18 7 32 21 45 1-1 5-5 11-12 6-6 11-10 13-13 3-2 7-5 12-9 5-4 10-6 15-8 6-1 11-2 17-2 17 0 31 6 42 17 11 12 17 25 17 42 0 6-1 12-2 17-1 5-4 10-8 15-4 6-7 9-9 12-2 2-7 7-13 13-7 6-11 10-12 11 12 13 27 20 44 20 16 0 30-6 42-17l127-128c12-11 17-25 17-41 0-16-5-30-17-41z" horiz-adv-x="1000" />

<glyph glyph-name="111-unlink-1" unicode="&#xe86e;" d="M931 781c-92 92-242 92-334 0l-168-167c-14-15-14-38 0-52 15-14 38-14 52 0l167 167c31 31 72 48 116 48 44 0 85-17 115-48s48-71 48-115c0-44-17-85-48-116l-218-219c-64-64-168-64-232 0-14 14-37 14-51 0s-14-37 0-51c46-46 107-69 167-69s121 23 167 69l219 218c44 45 69 104 69 168 0 63-25 122-69 167z m-437-669l-142-142c-31-30-72-47-116-47-44 0-85 17-115 47-64 64-64 168 0 232l205 206c31 31 72 48 116 48 44 0 85-17 116-48 14-14 37-14 51 0s15 37 0 51c-92 93-242 93-334 0l-206-206c-44-44-69-103-69-167 0-63 25-123 69-167 45-45 104-69 167-69 64 0 123 24 168 69l141 142c14 14 14 37 0 51s-37 14-51 0z" horiz-adv-x="1000" />

<glyph glyph-name="112-unlink" unicode="&#xe86f;" d="M934 784c-88 88-232 88-320 0l-174-174c-7-7-7-19 0-26s19-8 27 0l173 173c36 36 83 55 134 55 50 0 98-19 133-55s55-83 55-133c0-51-19-98-55-134l-227-227c-73-73-193-73-267 0-7 8-19 8-26 0s-8-19 0-26c44-45 102-67 160-67s116 22 160 67l227 226c42 43 66 100 66 161 0 60-24 117-66 160z m-427-694l-147-147c-36-36-83-55-134-55-50 0-98 19-133 55-74 73-74 193 0 267l214 213c73 74 193 74 266 0 8-7 20-7 27 0s8 20 0 27c-88 88-232 88-320 0l-214-213c-42-43-66-100-66-161 0-60 24-117 66-160s100-66 160-66c61 0 118 23 161 66l146 147c8 7 8 19 0 27s-19 7-26 0z" horiz-adv-x="1000" />

<glyph glyph-name="113-link-1" unicode="&#xe870;" d="M529 417c-11-11-11-29 0-40 45-45 45-119 0-164l-239-239c-45-45-119-45-164 0l-36 36c-45 46-45 119 0 165l238 238c11 11 11 28 0 39s-28 11-39 0l-238-238c-33-32-51-76-51-122 0-46 18-89 51-122l35-35c34-34 78-51 122-51s88 17 122 51l238 238c67 67 67 176 0 244-11 11-28 11-39 0z m421 313l-36 35c-67 67-177 67-244 0l-238-238c-67-67-67-176 0-243 11-11 29-11 40 0s11 28 0 39c-46 45-46 119 0 165l238 238c45 45 119 45 164 0l36-36c46-45 46-119 0-165l-238-238c-11-11-11-28 0-39 5-6 13-9 20-9s14 3 19 9l239 238c32 32 50 76 50 122 0 46-18 89-50 122z" horiz-adv-x="1000" />

<glyph glyph-name="114-signs-1" unicode="&#xe871;" d="M1000 445v-190c0-15-12-26-26-26h-353v-353c0-14-11-26-26-26h-190c-15 0-26 12-26 26v353h-353c-14 0-26 11-26 26v190c0 15 12 26 26 26h353v353c0 14 11 26 26 26h190c15 0 26-12 26-26v-353h353c14 0 26-11 26-26z" horiz-adv-x="1000" />

<glyph glyph-name="115-cross-3" unicode="&#xe872;" d="M875 413h-312v312h-188v-312h-312v-188h312v-313h188v313h312z" horiz-adv-x="1000" />

<glyph glyph-name="116-cross-2" unicode="&#xe873;" d="M990 509c-6 6-15 9-23 9l-299 0 0 299c0 9-3 17-9 23-7 7-15 10-24 10l-270 0c-18 0-33-15-33-33l0-299-299 0c-18 0-33-15-33-33l0-270c0-9 4-17 10-24 6-6 15-9 23-9l299 0 0-299c0-9 3-17 10-23 6-7 14-10 23-10l270 0c18 0 33 15 33 33l0 299 299 0c18 0 33 15 33 33l0 270c0 9-4 17-10 24z" horiz-adv-x="1000" />

<glyph glyph-name="117-web" unicode="&#xe874;" d="M594 850c-225 0-406-182-406-406 0-97 33-185 90-255l-265-265c-17-17-17-44 0-61 17-17 44-17 61 0l265 265c70-57 158-91 255-91 224 0 406 182 406 407s-182 406-406 406z m0-750c-190 0-344 154-344 344s154 344 344 344 344-155 344-344-155-344-344-344z m187 375h-156v156c0 17-14 31-31 31-17 0-31-14-31-31v-156h-157c-17 0-31-14-31-31 0-18 14-32 31-32h157v-156c0-17 14-31 31-31 17 0 31 14 31 31v156h156c18 0 32 14 32 32 0 17-14 31-32 31z" horiz-adv-x="1000" />

<glyph glyph-name="118-cross-1" unicode="&#xe875;" d="M365-150c-9 0-17 3-23 10-7 6-10 14-10 23l0 299-299 0c-8 0-17 3-23 9-6 7-10 15-10 24l0 270c0 18 15 33 33 33l299 0 0 299c0 18 15 33 33 33l270 0c9 0 17-3 24-10 6-6 9-14 9-23l0-299 299 0c8 0 17-3 23-9 6-7 10-15 10-24l0-270c0-18-15-33-33-33l-299 0 0-299c0-18-15-33-33-33l-270 0z m0 398c9 0 17-3 24-10 6-6 9-14 9-23l0-299 204 0 0 299c0 18 15 33 33 33l298 0 0 204-298 0c-9 0-17 3-23 10-7 6-10 14-10 23l0 299-204 0 0-299c0-18-15-33-33-33l-298 0 0-204 298 0z" horiz-adv-x="1000" />

<glyph glyph-name="119-cross" unicode="&#xe876;" d="M875 475h-250v250c0 69-56 125-125 125s-125-56-125-125v-250h-250c-69 0-125-56-125-125s56-125 125-125h250v-250c0-69 56-125 125-125s125 56 125 125v250h250c69 0 125 56 125 125s-56 125-125 125z" horiz-adv-x="1000" />

<glyph glyph-name="120-tool" unicode="&#xe877;" d="M500 600h-125v-125h-125v-125h125v-125h125v125h125v125h-125v125z m478-619l-181 181c49 71 79 157 79 250 0 242-196 438-438 438s-438-196-438-438 196-438 438-438c93 0 179 30 250 79l181-180c30-31 78-31 109 0 30 30 30 78 0 108z m-540 119c-173 0-313 140-313 312 0 173 140 313 313 313 173 0 313-140 313-313 0-172-140-312-313-312z" horiz-adv-x="1000" />

<glyph glyph-name="121-signs" unicode="&#xe878;" d="M500 850c-276 0-500-223-500-500s224-500 500-500 500 224 500 500-223 500-500 500z m0-941c-241 0-441 200-441 441s200 441 441 441 441-200 441-441-200-441-441-441z m147 470h-118v118c0 18-11 30-29 30-18 0-29-12-29-30v-118h-118c-18 0-29-11-29-29 0-18 11-29 29-29h118v-118c0-18 11-29 29-29 18 0 29 11 29 29v118h118c18 0 30 11 30 29 0 18-12 29-30 29z" horiz-adv-x="1000" />

<glyph glyph-name="122-sign" unicode="&#xe879;" d="M656 413h-93v93c0 35-28 63-63 63s-62-28-62-63v-93h-94c-35 0-63-28-63-63 0-34 28-62 63-62h94v-94c0-35 28-63 62-63s63 28 63 63v94h93c35 0 63 28 63 62s-28 63-63 63z m-156 437c-276 0-500-224-500-500s224-500 500-500 500 224 500 500-224 500-500 500z m0-906c-224 0-406 182-406 406s182 406 406 406 406-182 406-406-182-406-406-406z" horiz-adv-x="1000" />

<glyph glyph-name="123-add-7" unicode="&#xe87a;" d="M895 850h-790c-58 0-105-47-105-105v-790c0-58 47-105 105-105h790c58 0 105 47 105 105v790c0 58-47 105-105 105z m55-895c0-30-25-55-55-55h-790c-30 0-55 25-55 55v790c0 30 25 55 55 55h790c30 0 55-25 55-55v-790z m-261 420h-164v164c0 14-11 25-25 25s-25-11-25-25v-164h-164c-14 0-25-11-25-25 0-14 11-25 25-25h164v-164c0-14 11-25 25-25s25 11 25 25v164h164c14 0 25 11 25 25 0 14-11 25-25 25z" horiz-adv-x="1000" />

<glyph glyph-name="124-add-6" unicode="&#xe87b;" d="M500 850c-276 0-500-224-500-500s224-500 500-500 500 224 500 500-224 500-500 500z m357-536h-321v-321c0-20-16-36-36-36s-36 16-36 36v321h-321c-20 0-36 16-36 36s16 36 36 36h321v321c0 20 16 36 36 36s36-16 36-36v-321h321c20 0 36-16 36-36s-16-36-36-36z" horiz-adv-x="1000" />

<glyph glyph-name="125-add-song" unicode="&#xe87c;" d="M938 413h-375v375c0 34-28 62-63 62s-62-28-62-62v-375h-375c-35 0-63-28-63-63 0-34 28-62 63-62h375v-376c0-34 28-62 62-62s63 28 63 62v376h375c34 0 62 28 62 62 0 35-28 63-62 63z" horiz-adv-x="1000" />

<glyph glyph-name="126-add-5" unicode="&#xe87d;" d="M500 850c-276 0-500-224-500-500 0-276 224-500 500-500 276 0 500 224 500 500s-224 500-500 500z m0-968c-258 0-468 210-468 468 1 258 210 467 468 468 258 0 468-210 468-468s-210-468-468-468z m307 484h-291v291c0 8-7 16-16 16s-16-8-16-16v-291h-290c-9 0-17-7-17-16s8-16 17-16h290v-290c0-9 7-17 16-17s16 8 16 17v290h291c8 0 16 7 16 16s-8 16-16 16z" horiz-adv-x="1000" />

<glyph glyph-name="127-add-4" unicode="&#xe87e;" d="M984 366h-468v468c0 9-7 16-16 16s-16-7-16-16v-468h-468c-9 0-16-7-16-16s7-16 16-16h468v-468c0-9 7-16 16-16s16 7 16 16v468h468c9 0 16 7 16 16s-7 16-16 16z" horiz-adv-x="1000" />

<glyph glyph-name="128-add-3" unicode="&#xe87f;" d="M0 850v-1000h1000v1000h-1000z m850-533h-317v-317h-66v317h-317v66h317v317h66v-317h317v-66z" horiz-adv-x="1000" />

<glyph glyph-name="129-plus-1" unicode="&#xe880;" d="M969 475h-344v344c0 17-14 31-31 31h-188c-17 0-31-14-31-31v-344h-344c-17 0-31-14-31-31v-188c0-17 14-31 31-31h344v-344c0-17 14-31 31-31h188c17 0 31 14 31 31v344h344c17 0 31 14 31 31v188c0 17-14 31-31 31z" horiz-adv-x="1000" />

<glyph glyph-name="023-shopping-bag-4" unicode="&#xe881;" d="M796 668h-160v68c0 63-50 114-113 114h-46c-62 0-113-51-113-114v-68h-159l-114-818h818l-113 818z m-387 68c0 38 31 69 68 69h46c37 0 68-31 68-69v-68h-182v68z m-159-113h114v-91h45v91h182v-91h45v91h114l114-728h-728l114 728z" horiz-adv-x="1000" />

<glyph glyph-name="024-shopping-cart-4" unicode="&#xe882;" d="M319 84c-35 0-64-28-64-64s29-64 64-64 64 29 64 64-29 64-64 64z m21-85h-42v43h42v-43z m22 574v-42h638v42h-638z m-85-319l-64 490h-213v-43h175l59-447c0-58 48-106 106-106h554v42h-554c-35 0-63 29-63 64z m85 85h574v43h-574v-43z m468-255c-35 0-64-28-64-64s29-64 64-64 64 29 64 64-29 64-64 64z m21-85h-42v43h42v-43z" horiz-adv-x="1000" />

<glyph glyph-name="132-arrows-8" unicode="&#xe883;" d="M791 408l-418 418c-15 16-35 24-58 24-23 0-42-8-58-24l-48-48c-16-16-24-36-24-58 0-22 8-42 24-59l312-311-312-312c-16-16-24-35-24-58 0-22 8-41 24-58l48-48c16-16 36-24 58-24 23 0 42 8 58 24l418 418c16 16 24 36 24 58 0 23-8 42-24 58z" horiz-adv-x="1000" />

<glyph glyph-name="133-arrows-7" unicode="&#xe884;" d="M479 350l313 312c15 16 23 35 23 58 0 23-8 42-23 58l-49 48c-15 16-35 24-58 24s-42-8-58-24l-419-418c-15-16-23-35-23-58s8-42 23-58l419-418c16-16 35-24 58-24s43 8 58 24l49 48c15 16 23 35 23 58 0 22-8 42-23 58l-313 312z" horiz-adv-x="1000" />

<glyph glyph-name="134-arrows-6" unicode="&#xe885;" d="M985 335h-970c-8 0-15 7-15 15s7 15 15 15h970c8 0 15-6 15-15s-7-15-15-15z m-384-384c-4 0-8 1-11 4-6 6-6 16 0 22l373 373-373 373c-6 6-6 16 0 22s15 6 21 0l385-384c2-3 4-7 4-11s-2-8-4-11l-385-384c-3-3-7-4-10-4z" horiz-adv-x="1000" />

<glyph glyph-name="135-arrows-5" unicode="&#xe886;" d="M985 335h-970c-8 0-15 7-15 15s7 15 15 15h970c8 0 15-6 15-15s-7-15-15-15z m-585-384c-4 0-8 1-11 4l-384 384c-3 3-5 7-5 11s2 8 5 11l384 384c6 6 15 6 21 0s6-16 0-22l-373-373 373-373c6-6 6-16 0-22-3-3-7-4-10-4z" horiz-adv-x="1000" />

<glyph glyph-name="136-play-button-3" unicode="&#xe887;" d="M759 364l-366 250c-5 3-12 4-17 1-6-3-9-9-9-15v-500c0-6 3-12 9-15 2-1 5-2 7-2 4 0 7 1 10 3l366 250c5 3 8 9 8 14s-3 11-8 14z m-359-232v436l320-218-320-218z m100 718c-276 0-500-224-500-500s224-500 500-500 500 224 500 500-224 500-500 500z m0-967c-257 0-467 210-467 467s210 467 467 467 467-210 467-467-210-467-467-467z" horiz-adv-x="1000" />

<glyph glyph-name="137-play-button-2" unicode="&#xe888;" d="M859 370l-691 476c-7 5-16 5-24 1-8-4-13-12-13-21v-952c0-9 5-17 13-21 3-2 7-3 11-3 5 0 9 1 13 4l691 476c6 5 10 12 10 20s-4 15-10 20z" horiz-adv-x="1000" />

<glyph glyph-name="138-play-button-1" unicode="&#xe889;" d="M859 370l-691 476c-7 5-16 5-24 1-8-4-13-12-13-21v-952c0-9 5-17 13-21 3-2 7-3 11-3 5 0 9 1 13 4l691 476c6 5 10 12 10 20s-4 15-10 20z m-680-451v862l624-431-624-431z" horiz-adv-x="1000" />

<glyph glyph-name="139-search-8" unicode="&#xe88a;" d="M610 663c-94 93-238 114-355 51-8-4-11-14-6-23 4-8 14-11 22-6 104 56 232 37 315-45 4-4 8-5 12-5 5 0 9 1 12 5 6 6 6 17 0 23z m-382 14c-6 7-16 8-23 2-6-5-12-10-18-16-3-3-5-7-5-12 0-9 8-16 17-16 4 0 9 1 12 5 5 5 10 9 15 14 7 6 8 16 2 23z m767-705l0 0-262 263c119 185 67 431-118 551-185 119-431 67-551-118-42-64-64-139-64-216-1-220 177-399 397-399 77 0 153 22 218 65l263-263c6-7 17-7 23 0l94 94c7 6 7 17 0 23z m-387 180c-145-102-343-84-468 41-142 143-142 374 0 517s374 143 517 0c125-125 142-323 41-468-25-35-55-65-90-90z m282-262l-247 247c3 2 5 4 8 6 2 2 4 4 6 6 8 7 16 14 23 21 7 7 14 15 21 23 2 2 4 4 6 6 2 3 4 6 6 8l247-247-70-70z" horiz-adv-x="1000" />

<glyph glyph-name="140-search-7" unicode="&#xe88b;" d="M723 726c-80 80-186 124-300 124s-219-44-299-124c-80-80-124-186-124-299 0-113 44-220 124-300 80-80 186-124 299-124s220 44 300 124c80 80 124 187 124 300 0 113-44 219-124 299z m-300-642c-188 0-342 154-342 343s154 342 342 342 343-153 343-342-154-343-343-343z m565-165l-265 266c-16 15-42 15-57 0-16-16-16-42 0-58l265-265c8-8 18-12 29-12 10 0 20 4 28 12 16 16 16 41 0 57z" horiz-adv-x="1000" />

<glyph glyph-name="141-interface" unicode="&#xe88c;" d="M986-9l-239 247c-18 18-39 25-48 16-10-9-31-2-48 16l-4 3c107 141 97 343-32 472-140 140-368 140-508 0-141-141-141-368 0-509 131-131 337-139 478-26l2-2c17-18 23-39 14-48-9-9-3-31 14-49l240-247c17-18 45-19 63-1l67 64c18 18 18 46 1 64z m-450 324c-96-96-254-96-350 0-97 97-97 254 0 351 96 96 254 96 350 0 97-97 97-254 0-351z" horiz-adv-x="1000" />

<glyph glyph-name="142-search-6" unicode="&#xe88d;" d="M978-21l-261 261c121 180 73 423-107 543s-423 73-543-106-73-423 106-544c133-89 305-89 437 0l261-261c30-29 77-29 107 0s29 77 0 107z m-586 121c-197 0-358 160-358 358 0 198 160 358 358 358s358-160 358-358-160-358-358-358z m562-204c-8-8-18-13-29-13-12 0-22 5-30 13l-254 254 59 60 254-255c17-16 17-43 0-59z m-553 887l-1-34c86-2 167-42 221-110l26 21c-60 75-150 120-246 123z m270-158l-29-17c7-11 12-21 17-32l30 13c-5 12-11 24-18 36z" horiz-adv-x="1000" />

<glyph glyph-name="143-magnifier-tool" unicode="&#xe88e;" d="M750 475c0 207-168 375-375 375-207 0-375-168-375-375s168-375 375-375c207 0 375 168 375 375z m-375-281c-155 0-281 126-281 281 0 155 126 281 281 281 155 0 281-126 281-281 0-155-126-281-281-281z m598-184l-230 230c-34-54-79-99-132-133l229-230c37-36 96-36 133 0 36 37 36 96 0 133z" horiz-adv-x="1000" />

<glyph glyph-name="144-musica-searcher" unicode="&#xe88f;" d="M976-7l-218 217c-1 1-2 2-3 3 42 65 67 142 67 226 0 227-184 411-411 411s-411-184-411-411c0-227 184-411 411-411 84 0 161 25 226 67 1-1 2-2 3-3l217-218c33-32 86-32 119 0 32 33 32 86 0 119z m-565 177c-148 0-268 121-268 269 0 148 120 269 268 269 149 0 269-121 269-269 0-148-120-269-269-269z" horiz-adv-x="1000" />

<glyph glyph-name="145-search-5" unicode="&#xe890;" d="M1000-71l-295 295c49 66 78 147 78 234 0 216-175 392-391 392s-392-176-392-392 176-391 392-391c87 0 168 29 234 78l295-295 79 79z m-963 529c0 196 159 355 355 355s354-159 354-355-159-354-354-354-355 159-355 354z m626-281c4 3 7 6 10 10 3 3 6 5 8 8l266-266-26-26-266 266c3 2 5 5 8 8z" horiz-adv-x="1000" />

<glyph glyph-name="146-search-4" unicode="&#xe891;" d="M968-61l-238 248c61 72 95 164 95 259 0 223-181 404-404 404s-404-181-404-404 181-403 404-403c84 0 163 25 231 73l240-250c10-10 24-16 38-16 14 0 27 5 37 15 21 20 21 53 1 74z m-547 806c165 0 298-134 298-299s-133-298-298-298-298 134-298 298 134 299 298 299z" horiz-adv-x="1000" />

<glyph glyph-name="147-magnifying-glass" unicode="&#xe892;" d="M991-99l-243 243c65 75 105 173 105 280 0 235-191 426-426 426-236 0-427-191-427-426s192-427 427-427c106 0 204 40 279 105l243-243c6-6 14-9 21-9s16 3 21 9c12 11 12 30 0 42z m-931 523c0 202 164 366 366 366 203 0 367-164 367-366s-164-367-367-367c-202 0-366 164-366 367z" horiz-adv-x="1000" />

<glyph glyph-name="148-search-3" unicode="&#xe893;" d="M976-118l-280 292c71 72 116 170 116 280 0 218-178 396-397 396s-396-178-396-396 177-397 396-397c96 0 184 34 253 91l281-292c4-4 9-6 14-6 4 0 9 2 13 5 7 7 7 19 0 27z m-561 213c-198 0-359 161-359 359s161 358 359 358 359-161 359-358-161-359-359-359z" horiz-adv-x="1000" />

<glyph glyph-name="149-basket" unicode="&#xe894;" d="M956 535h-218l-146 298c-4 11-17 15-28 9-10-4-15-17-9-27l137-281h-385l137 281c4 10 1 23-9 27-11 5-24 2-28-9l-146-299h-217c-24 0-44-20-44-44v-109c0-24 20-44 44-44h51c0 0 0 0 0-1v-380c0-63 38-101 101-101h608c63 0 101 38 101 101v380c0 1 0 1 0 2h51c24 0 44 20 44 44v109c0 25-20 44-44 44z m-93-579c0-40-19-59-59-59h-609c-40 0-59 19-59 59v380c0 1 1 2 2 2h722c2 0 3-1 3-2v-380z m94 425c0-1-1-2-2-2h-94-723-94c-1 0-2 1-2 2v109c0 1 1 2 2 2h196l-23-47c-5-10-1-23 9-28 3-1 6-2 9-2 8 0 15 4 19 11l32 66h427l32-66c4-7 11-11 19-11 3 0 5 1 9 2 10 5 15 18 9 28l-23 47h196c1 0 2-1 2-2v-109z m-708-90c-11 0-21-9-21-21v-248c0-13 10-22 21-22s21 9 21 21v249c0 12-9 21-21 21z m125 0c-11 0-21-9-21-21v-248c2-13 11-22 21-22 12 0 21 9 21 21v249c0 12-9 21-21 21z m127 0c-12 0-21-9-21-21v-248c0-13 9-22 21-22s20 9 20 21v249c0 12-9 21-20 21z m125 0c-12 0-21-9-21-21v-248c0-13 9-22 21-22s21 9 21 21v249c0 12-10 21-21 21z m125 0c-12 0-21-9-21-21v-248c1-13 10-22 21-22 12 0 21 9 21 21v249c0 12-9 21-21 21z" horiz-adv-x="1000" />

<glyph glyph-name="150-shopping-cart" unicode="&#xe895;" d="M861 192l138 423c2 6 1 13-4 19-3 6-10 9-16 9h-724l-69 84c-3 5-10 9-16 9h-149c-12 0-21-10-21-22 0-11 9-21 21-21h139l66-80 83-419 32-158c2-9 10-16 21-16h43c9-32 38-56 73-56 34 0 63 24 73 56h203c9-32 39-56 73-56 42 0 76 35 76 77 0 43-34 77-76 77-36 0-64-24-73-56h-203c-10 32-39 56-73 56-35 0-64-24-73-56h-25l-24 116h485c9 0 18 6 20 14z m-34-118c19 0 34-15 34-34 0-19-15-34-34-34-19 0-34 15-34 34s15 34 34 34z m-351 0c19 0 35-15 35-34 0-19-16-34-35-34-18 0-34 15-34 34s16 34 34 34z m-129 145l-76 382h677v-1l-124-381h-477z m473 284h-440c-12 0-21-9-21-21s9-21 21-21h440c11 0 21 9 21 21s-10 21-21 21z m-37-141h-368c-12 0-21-10-21-21s9-22 21-22h368c12 0 21 10 21 22s-9 21-21 21z" horiz-adv-x="1000" />

<glyph glyph-name="151-shopping-bag-1" unicode="&#xe896;" d="M954-125l-75 696c-1 11-11 20-22 20h-138v42c0 120-98 217-217 217-120 0-217-97-217-217v-42h-142c-11 0-21-9-22-20l-75-696c-1-6 1-13 5-18 4-5 10-7 16-7h866c6 0 12 2 16 7 4 5 6 12 5 18z m-258 590c11 0 20-8 20-20 0-11-9-20-20-20-11 0-20 9-20 20 0 12 9 20 20 20z m-366 168c0 95 77 172 172 172 95 0 172-77 172-172v-42h-344v42z m-22-168c11 0 20-8 20-20 0-11-9-20-20-20-12 0-20 9-20 20 0 12 8 20 20 20z m-215-569l70 651h122v-41c-25-8-42-32-42-59 0-35 29-64 63-64 35 0 64 29 64 64 0 27-18 51-42 59v41h343v-41c-25-8-42-32-42-59 0-35 29-64 63-64 35 0 64 29 64 64 0 27-17 51-42 59v41h127l69-651h-817z" horiz-adv-x="1000" />

<glyph glyph-name="025-shopping-cart-3" unicode="&#xe897;" d="M404 620l9-54h525l-100-270c-16-45-36-81-81-81h-406c-44 0-63 37-81 81l-106 459h-164v-54h121l95-405c21-70 61-135 135-135h406c74 0 110 57 135 135l108 324h-596z m353-513c-45 0-81-36-81-81 0-45 36-81 81-81s81 36 81 81c0 45-36 81-81 81z m27-108h-54v54h54v-54z m-460 108c-44 0-81-36-81-81 0-45 37-81 81-81s81 36 81 81c0 45-36 81-81 81z m27-108h-54v54h54v-54z" horiz-adv-x="1000" />

<glyph glyph-name="026-shopping-bag-3" unicode="&#xe898;" d="M659 668v68c0 63-51 114-113 114h-91c-63 0-114-51-114-114v-68h-205v-818h728v818h-205z m-273 68c0 38 31 69 69 69h91c37 0 68-31 68-69v-68h-228v68z m432-841h-636v728h159v-91h45v91h228v-91h45v91h159v-728z" horiz-adv-x="1000" />

<glyph glyph-name="027-shopping-bag-2" unicode="&#xe899;" d="M667 650v33c0 92-75 167-167 167s-167-75-167-167v-33h-200v-800h734v800h-200z m-267 33c0 56 45 100 100 100s100-44 100-100v-33h-200v33z m400-766h-600v666h133v-100h67v100h200v-100h67v100h133v-666z" horiz-adv-x="1000" />

<glyph glyph-name="028-shopping-basket" unicode="&#xe89a;" d="M939 499h-106c-2 182-151 330-333 330s-331-148-333-330h-105c-38-3-42-35-40-46l93-548c4-20 20-34 40-34h691c19 0 36 14 39 34l93 548c2 11-3 44-39 46z m-439 250c139 0 251-112 253-250h-506c2 138 115 250 253 250z m312-798h-624l-79 469h782l-79-469z m-478 294h332c22 0 40 18 40 40s-18 40-40 40h-332c-22 0-40-18-40-40s18-40 40-40z m0-199h332c22 0 40 18 40 40 0 22-18 40-40 40h-332c-22 0-40-18-40-40 0-22 18-40 40-40z" horiz-adv-x="1000" />

<glyph glyph-name="029-shopping-cart-2" unicode="&#xe89b;" d="M987 575c-11 13-28 21-45 21h-654l-6 32c-4 22-19 39-40 45l-167 52c-30 9-63-8-72-38-10-31 7-64 38-73l134-42 102-447c3-19 16-34 32-42 0-4-1-8-1-12 0-54 45-98 99-98 54 0 98 44 98 98 0 2 0 5 0 7h155c0-2 0-5 0-7 0-54 44-98 98-98 54 0 98 44 98 98 0 2 0 5 0 7 25 3 45 22 50 47l93 402c3 17-1 34-12 48z m-580-552c-27 0-48 22-48 48s21 48 48 48 48-22 48-48-22-48-48-48z m351 0c-26 0-48 22-48 48s22 48 48 48 48-22 48-48-21-48-48-48z m34 199h-398c-19 0-35 16-35 35s16 35 35 35h398c19 0 35-16 35-35s-16-35-35-35z m0 186h-398c-19 0-35 16-35 35s16 35 35 35h398c19 0 35-16 35-35s-16-35-35-35z" horiz-adv-x="1000" />

<glyph glyph-name="030-shopping-purse-icon" unicode="&#xe89c;" d="M328 431c23 0 41 18 41 41v163c0 73 60 132 132 132 73 0 132-59 132-132v-163c0-23 19-41 42-41 23 0 41 18 41 41v163c0 119-96 215-215 215-118 0-215-96-215-215v-163c0-23 19-41 42-41z m651 93h-221v-52c0-46-37-83-83-83-46 0-84 37-84 83v52h-180v-52c0-46-37-83-83-83s-83 37-83 83v52h-224c-12 0-19-9-16-20l146-594c9-33 44-60 78-60h542c34 0 70 27 78 60l146 594c3 11-4 20-16 20z" horiz-adv-x="1000" />

<glyph glyph-name="031-commerce-9" unicode="&#xe89d;" d="M369 83c-64 0-116-52-116-116 0-65 52-117 116-117 65 0 117 52 117 117 0 64-52 116-117 116z m0-200c-46 0-83 38-83 84 0 46 37 83 83 83 46 0 84-37 84-83 0-46-38-84-84-84z m400 200c-64 0-116-52-116-116 0-65 52-117 116-117 65 0 117 52 117 117 0 64-52 116-117 116z m0-200c-46 0-83 38-83 84 0 46 37 83 83 83 46 0 84-37 84-83 0-46-38-84-84-84z m212 734h-810l-52 220c-2 8-9 13-16 13h-84c-9 0-16-7-16-17s7-16 16-16h71l147-621c1-7 8-13 16-13h633c9 0 17 8 17 17s-8 17-17 17h-620l-24 100h676c9-1 17 6 18 15s-6 17-15 18c-1 0-2 0-3 0h-684l-23 100h738c9 0 17 8 17 17s-8 16-17 16h-746l-24 100h802c9 0 16 8 16 17s-7 17-16 17z" horiz-adv-x="1000" />

<glyph glyph-name="032-web-1" unicode="&#xe89e;" d="M743 467l-202 303c-9 9-23 18-36 18-14 0-28-4-37-18l-202-303h-220c-28 0-46-18-46-46 0-4 0-9 0-14l115-426c9-37 46-69 87-69h596c41 0 78 27 87 69l115 426c0 5 0 10 0 14 0 28-18 46-46 46h-211z m-376 0l138 202 137-202h-275z m138-367c-51 0-92 41-92 92s41 92 92 92 91-42 91-92-41-92-91-92z" horiz-adv-x="1000" />

<glyph glyph-name="033-commerce-8" unicode="&#xe89f;" d="M989 554c9-11 13-25 10-40l-42-241c-1-12-7-22-17-30-10-9-21-13-33-13h-611l-13-68h583c14 0 26-5 36-15 11-10 16-22 16-37s-5-27-16-37c-10-10-22-15-36-15h-644c-16 0-29 7-40 19-10 13-14 27-12 43l27 150-42 422-119 37c-14 4-24 13-30 25-6 13-8 26-4 40 5 14 13 24 26 31s26 7 39 3l152-48c10-3 18-9 24-17 6-8 10-17 12-27l9-84 690-77c16-3 27-10 35-21z m-689-524c22 0 41-8 56-24 16-15 23-34 23-56 0-22-7-41-23-57-15-16-34-23-56-23s-41 7-56 23c-16 16-23 35-23 57s7 41 23 56c15 16 34 24 56 24z m471 0c22 0 41-8 56-24 16-15 23-34 23-56 0-22-7-41-23-57-15-16-34-23-56-23-22 0-41 7-56 23-16 16-23 35-23 57s7 41 23 56c15 16 34 24 56 24z" horiz-adv-x="1000" />

<glyph glyph-name="035-tool-2" unicode="&#xe8a0;" d="M994 641c-5 8-15 13-25 14l-620 27c-18 0-33-13-33-31-1-18 13-33 30-34l579-24-114-355h-506l-92 498c-2 10-9 20-19 24l-150 58c-17 7-35-1-42-18-6-16 2-35 18-41l134-53 93-506c2-15 16-26 31-26h16l-36-98c-3-9-1-18 4-25 5-7 13-11 21-11h25c-15-17-25-40-25-64 0-53 44-97 97-97s96 44 96 97c0 24-9 47-25 64h210c-15-17-25-40-25-64 0-53 44-97 97-97 53 0 96 44 96 97 0 24-9 47-25 64h30c15 0 27 12 27 27 0 14-12 26-27 26h-512l28 81h484c14 0 27 9 31 22l134 417c3 10 1 20-5 28z m-614-708c-24 0-43 19-43 43s19 42 43 42 43-19 43-42-20-43-43-43z m353 0c-24 0-43 19-43 43s19 42 43 42 42-19 42-42-19-43-42-43z" horiz-adv-x="1000" />

<glyph glyph-name="036-commerce-6" unicode="&#xe8a1;" d="M792 142c-69 0-125-56-125-125s56-125 125-125 125 56 125 125-56 125-125 125z m0-175c-28 0-50 23-50 50s22 50 50 50c27 0 50-22 50-50s-23-50-50-50z m200 657c-7 9-18 14-29 14h-732l-34 141c-4 17-19 29-36 29h-124c-20 0-37-17-37-38s17-37 37-37h94l122-509c4-17 19-29 36-29h583c17 0 32 12 36 29l91 368c3 11 0 23-7 32z m-150-354h-523l-70 293h666l-73-293z m-503-128c-69 0-124-56-124-125s55-125 124-125 125 56 125 125-56 125-125 125z m0-175c-27 0-50 23-50 50s23 50 50 50 50-22 50-50-22-50-50-50z" horiz-adv-x="1000" />

<glyph glyph-name="037-commerce-5" unicode="&#xe8a2;" d="M83 79h37c-25-46-19-105 20-144 22-22 52-35 85-35s62 13 85 35c23 23 35 53 35 86 0 21-5 40-15 58h149c-25-46-19-105 19-144 23-22 53-35 86-35s62 13 85 35c23 23 35 53 35 86 0 21-6 40-16 58h41c18 0 32 14 32 32 0 17-14 31-32 31h-614v62h697c14 0 27 10 31 24l105 385c2 9 1 19-5 27-7 8-16 12-25 12h-803v116c0 18-14 32-32 32s-32-14-32-32v-147-385-125c0-18 14-32 32-32z m460-18c11 11 24 17 40 17 15 0 29-6 40-17 11-11 17-25 17-40 0-16-6-30-17-41-21-22-59-22-80 0-23 23-23 58 0 81z m-358 0c10 11 24 17 40 17 15 0 29-6 40-17 11-11 17-25 17-40 0-16-6-30-17-41-22-22-59-22-80 0-23 23-23 58 0 81z m-70 529h761l-88-323h-673v323z" horiz-adv-x="1000" />

<glyph glyph-name="164-commerce-1" unicode="&#xe8a3;" d="M955 805h-137l-28-91h-728c-34 0-62-28-62-62l139-386c0 0 46-62 93-62 46 0 417 0 463 0 0 0 0 0 0 0l49-36h-539c-13 0-23-10-23-22s10-23 23-23h591c0 0 1 0 1 0 6-1 12 1 16 5 4 4 6 10 5 16 0 0 0 1 0 2 0 5-44 42-82 72 29 18 52 48 52 48l92 386c0 28-18 51-44 59l15 48h104c25 0 45 10 45 23 0 12-20 23-45 23z" horiz-adv-x="1000" />

<glyph glyph-name="165-play-button" unicode="&#xe8a4;" d="M100-150c-28 0-51 23-51 51v898c0 28 23 51 51 51l834-461c0 0 38-39 0-77-39-39-834-462-834-462z" horiz-adv-x="1000" />

<glyph glyph-name="166-download-1" unicode="&#xe8a5;" d="M756 457h-163v367c0 14-23 26-51 26h-90c-28 0-51-12-51-26v-367h-163c-16 0-29-10-29-23 0 0 244-358 266-375 22-18 44 0 44 0l266 375c0 13-13 23-29 23z m35-570c0-20-14-37-32-37h-517c-18 0-33 17-33 37v37c0 20 15 37 33 37h517c18 0 32-17 32-37l0-37 0 0z" horiz-adv-x="1000" />

<glyph glyph-name="038-commerce-4" unicode="&#xe8a6;" d="M979 630h-583c-19 0-30-15-24-33l92-270c5-15 21-27 36-27h383c15 0 31 12 35 27l81 276c4 15-4 27-20 27z m-56-418h-510l-205 587h-159c-27 0-49-22-49-49s22-49 49-49h89l204-588h581c27 0 49 22 49 49s-22 50-49 50z" horiz-adv-x="1000" />

<glyph glyph-name="168-shopping-bag" unicode="&#xe8a7;" d="M909 658l-201-16c-25 84-90 148-169 164-30 22-64 37-102 42v2h-26v-1c-128-14-228-120-232-251l-165-13 103-639 590-96 141 70 138 644-77 94z m-230-19l-41-3c-7 46-25 88-51 122 43-25 76-67 92-119z m-151 141c42-34 73-86 82-146l-296-24c19 94 100 166 198 172 5-1 11-1 16-2z m-105 42c22-2 42-7 61-16-101-17-182-97-199-199l-78-6c5 118 99 213 216 221z m293-935l-11 3 190 748 11-3-190-748z" horiz-adv-x="1000" />

<glyph glyph-name="039-commerce-3" unicode="&#xe8a8;" d="M37 730h106l151-546c4-16 19-28 36-28h464c15 0 28 9 34 23l169 388c5 12 4 25-3 35-7 11-19 17-31 17h-513c-20 0-37-17-37-37s17-37 37-37h456l-136-315h-412l-151 547c-5 16-20 27-36 27h-134c-20 0-37-17-37-37s17-37 37-37z m258-834c46 0 84 38 84 84s-38 84-84 84-84-38-84-84 38-84 84-84z m524 0c2 0 4 0 6 0 22 2 43 12 57 29 15 17 22 38 21 61-3 46-43 81-90 78-46-3-80-44-77-90 3-43 39-78 83-78z" horiz-adv-x="1000" />

<glyph glyph-name="170-location" unicode="&#xe8a9;" d="M906 444c0 224-182 406-406 406-224 0-406-182-406-406 0-131 62-247 158-322l252-272 249 276c93 75 153 189 153 318z m-405 118c65 0 118-53 118-118s-53-119-118-119c-65 0-118 53-118 119s53 118 118 118z" horiz-adv-x="1000" />

<glyph glyph-name="171-circular-clock" unicode="&#xe8aa;" d="M500 737c-214 0-387-173-387-387s173-387 387-387c214 0 387 173 387 387s-173 387-387 387z m218-516c-5-8-17-9-25-4l-203 145c-1 1-1 1-1 1-1 1-1 1-2 1 0 1-1 1-1 2 0 0-1 1-1 1 0 1 0 1-1 2 0 0 0 1-1 1 0 1 0 1 0 2 0 0 0 1 0 2-1 0-1 1-1 2 0 0 0 0 0 1v250c0 10 8 18 18 18 10 0 18-8 18-18v-241l196-140c8-5 10-17 4-25z m-218 629c-276 0-500-224-500-500s224-500 500-500c276 0 500 224 500 500s-224 500-500 500z m0-964c-256 0-464 208-464 464s208 464 464 464 464-208 464-464-208-464-464-464z" horiz-adv-x="1000" />

<glyph glyph-name="172-zoom-in" unicode="&#xe8ab;" d="M634 821c-202 0-366-164-366-365 0-85 28-163 77-225l-345-299 47-53 347 301c64-56 148-90 240-90 202 0 366 164 366 366 0 201-164 365-366 365z m0-690c-180 0-326 145-326 325s146 325 326 325 325-146 325-325-146-325-325-325z" horiz-adv-x="1000" />

<glyph glyph-name="173-add" unicode="&#xe8ac;" d="M946 420h-376v376c0 17-23 54-70 54s-70-37-70-54v-376h-376c-17 0-54-23-54-70s37-70 54-70h376v-376c0-17 24-54 70-54s70 37 70 54v376h376c17 0 54 24 54 70s-37 70-54 70z" horiz-adv-x="1000" />

<glyph glyph-name="174-search-2" unicode="&#xe8ad;" d="M1000-71l-343 298c50 63 80 143 80 229 0 203-166 368-369 368s-368-165-368-368 165-368 368-368c92 0 175 33 240 88l346-300 46 53z m-632 206c-177 0-321 144-321 321s144 321 321 321c177 0 322-144 322-321s-145-321-322-321z" horiz-adv-x="1000" />

<glyph glyph-name="040-interface-3" unicode="&#xe8ae;" d="M300 50c-55 0-100-45-100-100s45-100 100-100 100 45 100 100-45 100-100 100z m-300 800v-100h100l180-380-70-120c-5-15-10-35-10-50 0-55 45-100 100-100h600v100h-580c-5 0-10 5-10 10v5l45 85h370c40 0 70 20 85 50l180 325c10 10 10 15 10 25 0 30-20 50-50 50h-740l-45 100h-165z m800-800c-55 0-100-45-100-100s45-100 100-100 100 45 100 100-45 100-100 100z" horiz-adv-x="1000" />

<glyph glyph-name="176-menu-1" unicode="&#xe8af;" d="M954 508h-907c0 0-47 0-47 79s47 79 47 79h907c0 0 46 0 46-79s-46-79-46-79z m0-237h-907c0 0-47 0-47 79s47 79 47 79h907c0 0 46 0 46-79 0-79-46-79-46-79z m0-237h-907c0 0-47 0-47 79 0 79 47 79 47 79h907c0 0 46 0 46-79 0-79-46-79-46-79z" horiz-adv-x="1000" />

<glyph glyph-name="041-commerce-2" unicode="&#xe8b0;" d="M419 63c-48 0-88-39-88-88 0-48 40-88 88-88s88 40 88 88c0 49-39 88-88 88z m0-127c-21 0-38 18-38 39 0 22 17 39 38 39s39-17 39-39c0-21-17-39-39-39z m309 127c-49 0-88-39-88-88 0-48 39-88 88-88s88 40 88 88c0 49-40 88-88 88z m0-127c-22 0-39 18-39 39 0 22 17 39 39 39 21 0 39-17 39-39 0-21-18-39-39-39z m21 590h-351c-14 0-25-11-25-24 0-14 11-25 25-25h351c14 0 25 11 25 25 0 13-11 24-25 24z m-19-127h-313c-14 0-25-11-25-25s11-24 25-24h313c14 0 25 11 25 24 0 14-11 25-25 25z m259 237c-9 11-23 18-38 18h-765l-15 75c-4 15-14 29-29 35l-108 47c-12 5-27-1-32-13-5-13 0-27 13-32l108-47 118-577c5-23 25-39 48-39h589c13 0 24 11 24 25 0 13-11 24-24 24h-589l-14 70h607c23 0 44 17 48 39l69 334c3 14-1 29-10 41z m-107-365h-617l-69 334 755 0-69-334z" horiz-adv-x="1000" />

<glyph glyph-name="178-check" unicode="&#xe8b1;" d="M719 567l-342-378-108 119c-12 13-32 14-44 3-13-12-14-32-3-45l126-139c6-8 16-13 26-13 1 0 2 1 3 1 1 0 2-1 2-1 10 0 19 4 25 12l362 400c11 12 10 32-3 44-12 11-32 10-44-3z m-219 283c-276 0-500-224-500-500s224-500 500-500c276 0 500 224 500 500s-224 500-500 500z m0-938c-241 0-437 197-437 438s196 438 437 438c241 0 438-197 438-438s-197-438-438-438z" horiz-adv-x="1000" />

<glyph glyph-name="179-close" unicode="&#xe8b2;" d="M724 569c-12 12-32 12-44 0l-181-181-181 181c-12 12-32 12-44 0-12-12-12-32 0-44l180-180-180-179c-12-12-12-32 0-44 6-6 14-9 22-9s16 3 22 9l181 181 181-181c6-6 14-9 22-9 8 0 16 3 22 9 12 12 12 32 0 44l-179 179 179 180c13 12 13 32 0 44z m-225 281c-275 0-499-224-499-499 0-275 224-499 499-499 275 0 499 224 499 499 0 275-224 499-499 499z m0-936c-241 0-437 196-437 437 0 241 196 437 437 437 241 0 437-196 437-437 0-241-196-437-437-437z" horiz-adv-x="1000" />

<glyph glyph-name="180-multimedia" unicode="&#xe8b3;" d="M18-112c4-2 8-4 16-4 26 0 92 22 314 142 14-3 21-5 31-8l15-5c17-5 34 5 39 21 5 17-4 35-21 39l-14 5c-14 4-24 7-48 12-7 1-15 0-22-3-76-42-163-86-223-114 9 12 18 24 26 34 69 87 84 109 81 132-1 8-7 18-14 23-86 63-133 147-133 236 0 182 195 329 435 329s435-147 435-329c0-17 15-31 32-31 17 0 32 14 32 31 0 216-224 392-499 392s-498-176-498-392c0-101 50-200 140-272-14-21-41-55-61-80-70-90-85-111-80-135 2-9 9-19 17-23z m980 264c0 115-117 209-261 209-144 0-261-94-261-209 0-111 111-203 249-208 26-22 105-77 238-94 1 0 3 0 4 0 12 0 23 6 28 16 11 19 4 31-33 95-9 15-22 37-30 52 42 38 66 88 66 139z m-122-103c-28-20-14-43 31-120 1-2 2-3 3-5-100 26-150 73-150 74-6 6-14 9-23 9-109 0-197 65-197 145 0 80 88 146 197 146 109 0 198-66 198-146 0-38-21-75-59-103z" horiz-adv-x="1000" />

<glyph glyph-name="181-search-1" unicode="&#xe8b4;" d="M405 34c100 0 191 37 261 97l271-271c6-6 14-9 22-9 8 0 16 3 23 9 6 6 9 14 9 22s-3 16-9 22l-272 271c61 71 97 162 97 262 0 221-180 402-402 402-222 0-402-181-402-402 0-222 180-403 402-403z m0 742c187 0 339-152 339-339 0-188-152-340-339-340-187 0-340 152-340 340 0 187 153 339 340 339z" horiz-adv-x="1000" />

<glyph glyph-name="182-search" unicode="&#xe8b5;" d="M405 34c99 0 190 37 261 97l271-271c6-6 14-9 22-9 8 0 16 3 22 9 6 6 9 14 9 22s-3 16-9 22l-271 271c60 71 97 162 97 262 0 221-181 402-402 402-222 0-403-181-403-402 0-222 181-403 403-403z m0 742c187 0 339-152 339-339 0-188-152-340-339-340-188 0-340 152-340 340 0 187 152 339 340 339z m-121-371h78v-79c0-17 14-31 32-31 17 0 31 14 31 31v79h79c17 0 31 14 31 32s-14 31-31 31h-79v79c0 17-14 31-31 31-18 0-32-14-32-31v-79h-78c-18 0-32-14-32-31s14-32 32-32z" horiz-adv-x="1000" />

<glyph glyph-name="183-social-media" unicode="&#xe8b6;" d="M727 558h-442c-17 0-31-14-31-31s14-31 31-31h442c18 0 32 14 32 31s-14 31-32 31z m0-179h-442c-17 0-31-14-31-31s14-31 31-31h442c18 0 32 14 32 31s-14 31-32 31z m0-179h-442c-17 0-31-14-31-31s14-31 31-31h442c18 0 32 14 32 31s-14 31-32 31z m-227 650c-276 0-500-224-500-500s224-500 500-500c276 0 500 224 500 500s-224 500-500 500z m0-938c-241 0-437 197-437 438s196 438 437 438c241 0 438-197 438-438s-197-438-438-438z" horiz-adv-x="1000" />

<glyph glyph-name="184-favorite" unicode="&#xe8b7;" d="M479-137c6-5 13-8 20-8 5 0 10 1 14 3 5 2 9 6 13 10 44 42 425 404 455 593 2 7 42 170-44 278-49 62-128 92-234 89-6-1-129-8-203-75-75 65-196 72-203 73-105 2-183-27-233-89-86-108-46-271-45-276 32-198 443-582 460-598z m-366 835c35 43 93 65 171 65 3 0 7 0 11 0 1 0 130-8 181-75 10-14 30-17 43-6 5 3 9 8 11 13 53 62 175 70 176 70 84 2 145-20 182-65 67-83 33-223 32-227-22-139-294-423-420-543-128 122-397 403-419 544-1 1-35 140 32 224z" horiz-adv-x="1000" />

<glyph glyph-name="185-internet" unicode="&#xe8b8;" d="M43 330c8 0 15 3 21 8l98 89v-450c0-52 42-94 95-94h503c52 0 94 42 94 94v446l93-85c6-5 14-8 22-8 8 0 17 3 23 10 12 13 11 33-2 45l-460 421c-2 1-3 2-5 3-1 1-3 2-5 3-2 1-4 1-6 2-2 0-4 0-6 0-2 0-4 0-6 0s-4-1-5-2c-2-1-4-2-6-3-1-1-3-1-4-3l-465-421c-13-12-14-32-2-45 6-6 15-10 23-10z m544-384h-157v253c0 18 14 32 31 32h94c18 0 32-14 32-32v-253z m204 530v-499c0-17-14-31-31-31h-110v253c0 52-43 95-95 95h-94c-52 0-94-43-94-95v-253h-111c-17 0-31 14-31 31v499c0 3-1 5-1 7l284 258 284-261c0-1-1-2-1-4z" horiz-adv-x="1000" />

<glyph glyph-name="186-luxury" unicode="&#xe8b9;" d="M2 590c1-3 1-6 3-9 0 0 0-1 0-1 0 0 1-1 1-2 1-1 1-2 2-4l466-661c2-2 3-3 5-4 1-2 2-3 3-4 1 0 2 0 2-1 1-1 3-1 4-2 4-1 8-2 12-3 0 0 0 0 0 0 0 0 0 0 0 0 0 0 0 0 0 0 1 0 1 0 1 0 4 1 8 2 11 3 2 1 3 1 4 2 1 0 2 1 2 1 2 1 2 3 4 4 1 1 3 2 4 4l466 659c4 6 6 12 6 18 0 1 0 2 0 3 0 1 0 2 0 3-1 8-5 16-12 21l-238 184c-6 4-12 6-20 6-4 0-108-2-228-26-113 24-223 26-228 26-8 0-14-2-19-6l-238-184c-1 0-1 0-2-1-1-1-3-3-5-5 0-1-1-2-1-3-1-1-1-1-2-2 0-1 0-2-1-4 0-1-1-2-1-3 0-2-1-5 0-7-1-1-1-1-1-2z m468 133v-86c-9 1-19 2-31 3-31 4-73 8-128 8-5 0-11-1-16-1l62 92c33-4 73-9 113-16z m173 16l62-92c-5 0-11 1-16 1-69 0-118-6-151-12-2 0-3 0-5 0v87c40 8 78 12 110 16z m-215-161c18-2 31-5 41-7v-480l-193 487c72 3 120 2 152 0z m104-7c5 1 11 2 18 4 31 3 85 5 175 2l-193-486v480z m-323 3l161-405-279 397c44 4 83 6 118 8z m421-406l161 405c36-2 75-5 119-9l-280-396z m226 470c-26 3-50 5-74 6l-67 100c1 0 3 0 3 0l138-106z m-574 106c1 0 2 0 3 0l-68-100c-24-1-47-3-72-6l137 106z" horiz-adv-x="1000" />

<glyph glyph-name="187-up-arrow-1" unicode="&#xe8ba;" d="M170 452c8 0 16 3 22 9l279 278v-856c0-17 14-31 31-31 17 0 31 14 31 31v856l279-278c6-6 14-9 22-9 8 0 16 3 22 9 12 12 12 32 0 44l-332 332c-12 12-32 12-44 0l-332-332c-12-12-12-32 0-44 6-6 14-9 22-9z" horiz-adv-x="1000" />

<glyph glyph-name="188-arrows-2" unicode="&#xe8bb;" d="M659 703c-6 6-14 9-22 9s-16-3-22-9c-13-12-13-32 0-44l278-279h-856c-18 0-32-14-32-31 0-17 14-31 32-31h856l-278-279c-13-12-13-32 0-44 12-12 32-12 44 0l332 332c12 12 12 32 0 44l-332 332z" horiz-adv-x="1000" />

<glyph glyph-name="189-arrows-1" unicode="&#xe8bc;" d="M690 350l-443-443c-12-12-12-32 0-45 6-6 15-9 23-9 8 0 16 3 22 9l464 465c9 9 12 23 7 34-1 4-4 8-7 11l-465 465c-12 12-32 12-44 0-12-12-12-32 0-44l443-443z" horiz-adv-x="1000" />

<glyph glyph-name="190-arrows" unicode="&#xe8bd;" d="M712-141c6-6 14-9 22-9s16 3 22 9c12 12 12 32 0 45l-443 442 443 443c13 13 13 33 0 45-12 12-32 12-44 0l-465-465c-3-3-6-8-7-12-5-11-2-24 7-33l465-465z" horiz-adv-x="1000" />

<glyph glyph-name="191-commerce" unicode="&#xe8be;" d="M993 618c-5 7-14 11-24 11h-811l-27 149c0 1 0 2-1 3 0 2-1 4-2 6-1 1-2 3-3 4-2 2-3 3-5 5-1 1-3 2-4 3-2 1-4 2-6 2-2 1-4 1-6 1-1 1-2 1-3 1h-70c-17 0-31-14-31-31 0-17 14-30 31-30h44l107-599 0-3c0 0 0 0 0 0l29-164c3-15 16-26 31-26h68c-19-1-33-15-33-34 0-19 16-35 35-35s35 16 35 35c0 19-14 33-33 34h438c-18-1-33-15-33-34 0-19 16-35 36-35 19 0 35 16 35 35 0 19-15 33-33 34h40c18 0 32 14 32 31 0 17-14 31-32 31h-529l-18 103h602c15 0 27 9 30 23l117 453c2 9 0 19-6 27z m-165-442h-589l-68 392h758l-101-392z" horiz-adv-x="1000" />

<glyph glyph-name="192-youtube" unicode="&#xe8bf;" d="M996 518c-6 102-95 187-198 188l-139 2c-88 2-230 2-317 0l-142-2c-103-1-191-86-196-189l-1-8c-4-87-4-229 0-317l1-8c5-103 93-188 196-190l142-3c44-1 101-1 158-1 57 0 115 0 159 1l139 3c103 2 192 87 198 189l0 9c5 87 5 230 0 317l0 9z m-63-322l0-9c-4-69-67-129-137-130l-138-3c-87-1-228-1-315 0l-142 3c-71 1-131 60-134 130l-1 8c-4 86-4 225 0 311l1 8c3 71 63 129 134 130l142 2c43 0 99 1 155 1 58 0 116-1 160-1l139-2c70-1 131-60 136-130l0-8c5-86 5-225 0-310z m-265 192l-250 131c-10 5-22 5-31-1s-15-16-15-27v-262c0-11 6-21 15-27 5-3 11-5 16-5 5 0 10 2 15 4l250 131c10 6 17 16 17 28s-7 22-17 28z m-233-107v158l150-79-150-79z" horiz-adv-x="1000" />

</font>
</defs>
</svg>
